  0
SECTION
  2
HEADER
  9
$ACADVER
  1
AC1032
  9
$ACADMAINTVER
 90
      131
  9
$DWGCODEPAGE
  3
ANSI_1252
  9
$LASTSAVEDBY
  1
btbgraven
  9
$REQUIREDVERSIONS
160
                 0
  9
$INSBASE
 10
0.0
 20
0.0
 30
0.0
  9
$EXTMIN
 10
2716.909394315666
 20
-1366.596330051909
 30
0.0
  9
$EXTMAX
 10
2907.259394315666
 20
-1111.140298555528
 30
0.0
  9
$LIMMIN
 10
0.0
 20
0.0
  9
$LIMMAX
 10
297.0
 20
210.0
  9
$ORTHOMODE
 70
     0
  9
$REGENMODE
 70
     1
  9
$FILLMODE
 70
     1
  9
$QTEXTMODE
 70
     0
  9
$MIRRTEXT
 70
     1
  9
$LTSCALE
 40
1.0
  9
$ATTMODE
 70
     1
  9
$TEXTSIZE
 40
1.0
  9
$TRACEWID
 40
1.0
  9
$TEXTSTYLE
  7
Standard
  9
$CLAYER
  8
0
  9
$CELTYPE
  6
ByLayer
  9
$CECOLOR
 62
   256
  9
$CELTSCALE
 40
1.0
  9
$DISPSILH
 70
     0
  9
$DIMSCALE
 40
1.0
  9
$DIMASZ
 40
2.5
  9
$DIMEXO
 40
1.5
  9
$DIMDLI
 40
3.75
  9
$DIMRND
 40
0.0
  9
$DIMDLE
 40
0.0
  9
$DIMEXE
 40
1.25
  9
$DIMTP
 40
0.0
  9
$DIMTM
 40
0.0
  9
$DIMTXT
 40
4.0
  9
$DIMCEN
 40
2.5
  9
$DIMTSZ
 40
0.0
  9
$DIMTOL
 70
     0
  9
$DIMLIM
 70
     0
  9
$DIMTIH
 70
     0
  9
$DIMTOH
 70
     0
  9
$DIMSE1
 70
     0
  9
$DIMSE2
 70
     0
  9
$DIMTAD
 70
     1
  9
$DIMZIN
 70
     8
  9
$DIMBLK
  1

  9
$DIMASO
 70
     1
  9
$DIMSHO
 70
     1
  9
$DIMPOST
  1

  9
$DIMAPOST
  1

  9
$DIMALT
 70
     0
  9
$DIMALTD
 70
     3
  9
$DIMALTF
 40
0.03937007874016
  9
$DIMLFAC
 40
1.0
  9
$DIMTOFL
 70
     1
  9
$DIMTVP
 40
0.0
  9
$DIMTIX
 70
     0
  9
$DIMSOXD
 70
     0
  9
$DIMSAH
 70
     0
  9
$DIMBLK1
  1

  9
$DIMBLK2
  1

  9
$DIMSTYLE
  2
ISO-25
  9
$DIMCLRD
 70
     0
  9
$DIMCLRE
 70
     0
  9
$DIMCLRT
 70
     0
  9
$DIMTFAC
 40
1.0
  9
$DIMGAP
 40
1.5
  9
$DIMJUST
 70
     0
  9
$DIMSD1
 70
     0
  9
$DIMSD2
 70
     0
  9
$DIMTOLJ
 70
     0
  9
$DIMTZIN
 70
     8
  9
$DIMALTZ
 70
     0
  9
$DIMALTTZ
 70
     0
  9
$DIMUPT
 70
     0
  9
$DIMDEC
 70
     2
  9
$DIMTDEC
 70
     2
  9
$DIMALTU
 70
     2
  9
$DIMALTTD
 70
     3
  9
$DIMTXSTY
  7
Standard
  9
$DIMAUNIT
 70
     0
  9
$DIMADEC
 70
     0
  9
$DIMALTRND
 40
0.0
  9
$DIMAZIN
 70
     0
  9
$DIMDSEP
 70
    46
  9
$DIMATFIT
 70
     3
  9
$DIMFRAC
 70
     0
  9
$DIMLDRBLK
  1

  9
$DIMLUNIT
 70
     2
  9
$DIMLWD
 70
    -2
  9
$DIMLWE
 70
    -2
  9
$DIMTMOVE
 70
     0
  9
$DIMFXL
 40
1.0
  9
$DIMFXLON
 70
     0
  9
$DIMJOGANG
 40
0.7853981633974483
  9
$DIMTFILL
 70
     0
  9
$DIMTFILLCLR
 70
     0
  9
$DIMARCSYM
 70
     0
  9
$DIMLTYPE
  6

  9
$DIMLTEX1
  6

  9
$DIMLTEX2
  6

  9
$DIMTXTDIRECTION
 70
     0
  9
$LUNITS
 70
     2
  9
$LUPREC
 70
     4
  9
$SKETCHINC
 40
1.0
  9
$FILLETRAD
 40
1.0
  9
$AUNITS
 70
     0
  9
$AUPREC
 70
     0
  9
$MENU
  1
.
  9
$ELEVATION
 40
0.0
  9
$PELEVATION
 40
0.0
  9
$THICKNESS
 40
0.0
  9
$LIMCHECK
 70
     0
  9
$CHAMFERA
 40
0.0
  9
$CHAMFERB
 40
0.0
  9
$CHAMFERC
 40
20.0
  9
$CHAMFERD
 40
0.0
  9
$SKPOLY
 70
     0
  9
$TDCREATE
 40
2452390.313101852
  9
$TDUCREATE
 40
2452390.229774306
  9
$TDUPDATE
 40
2459485.641840278
  9
$TDUUPDATE
 40
2459485.558506945
  9
$TDINDWG
 40
22.6572797338
  9
$TDUSRTIMER
 40
22.6572797338
  9
$USRTIMER
 70
     1
  9
$ANGBASE
 50
0.0
  9
$ANGDIR
 70
     0
  9
$PDMODE
 70
     0
  9
$PDSIZE
 40
0.0
  9
$PLINEWID
 40
0.0
  9
$SPLFRAME
 70
     0
  9
$SPLINETYPE
 70
     6
  9
$SPLINESEGS
 70
     8
  9
$HANDSEED
  5
2C0
  9
$SURFTAB1
 70
     6
  9
$SURFTAB2
 70
     6
  9
$SURFTYPE
 70
     6
  9
$SURFU
 70
     6
  9
$SURFV
 70
     6
  9
$UCSBASE
  2

  9
$UCSNAME
  2

  9
$UCSORG
 10
0.0
 20
0.0
 30
0.0
  9
$UCSXDIR
 10
1.0
 20
0.0
 30
0.0
  9
$UCSYDIR
 10
0.0
 20
1.0
 30
0.0
  9
$UCSORTHOREF
  2

  9
$UCSORTHOVIEW
 70
     0
  9
$UCSORGTOP
 10
0.0
 20
0.0
 30
0.0
  9
$UCSORGBOTTOM
 10
0.0
 20
0.0
 30
0.0
  9
$UCSORGLEFT
 10
0.0
 20
0.0
 30
0.0
  9
$UCSORGRIGHT
 10
0.0
 20
0.0
 30
0.0
  9
$UCSORGFRONT
 10
0.0
 20
0.0
 30
0.0
  9
$UCSORGBACK
 10
0.0
 20
0.0
 30
0.0
  9
$PUCSBASE
  2

  9
$PUCSNAME
  2

  9
$PUCSORG
 10
0.0
 20
0.0
 30
0.0
  9
$PUCSXDIR
 10
1.0
 20
0.0
 30
0.0
  9
$PUCSYDIR
 10
0.0
 20
1.0
 30
0.0
  9
$PUCSORTHOREF
  2

  9
$PUCSORTHOVIEW
 70
     0
  9
$PUCSORGTOP
 10
0.0
 20
0.0
 30
0.0
  9
$PUCSORGBOTTOM
 10
0.0
 20
0.0
 30
0.0
  9
$PUCSORGLEFT
 10
0.0
 20
0.0
 30
0.0
  9
$PUCSORGRIGHT
 10
0.0
 20
0.0
 30
0.0
  9
$PUCSORGFRONT
 10
0.0
 20
0.0
 30
0.0
  9
$PUCSORGBACK
 10
0.0
 20
0.0
 30
0.0
  9
$USERI1
 70
     0
  9
$USERI2
 70
     0
  9
$USERI3
 70
     0
  9
$USERI4
 70
     0
  9
$USERI5
 70
     0
  9
$USERR1
 40
0.0
  9
$USERR2
 40
0.0
  9
$USERR3
 40
0.0
  9
$USERR4
 40
0.0
  9
$USERR5
 40
0.0
  9
$WORLDVIEW
 70
     1
  9
$SHADEDGE
 70
     3
  9
$SHADEDIF
 70
    70
  9
$TILEMODE
 70
     1
  9
$MAXACTVP
 70
    64
  9
$PINSBASE
 10
0.0
 20
0.0
 30
0.0
  9
$PLIMCHECK
 70
     0
  9
$PEXTMIN
 10
1.122222179502951
 20
0.7874999740930991
 30
0.0
  9
$PEXTMAX
 10
10.09999961552657
 20
7.087499766837893
 30
0.0
  9
$PLIMMIN
 10
-0.2361111378106545
 20
-0.1944444498677892
  9
$PLIMMAX
 10
11.45833293284018
 20
8.069444172025665
  9
$UNITMODE
 70
     0
  9
$VISRETAIN
 70
     1
  9
$PLINEGEN
 70
     0
  9
$PSLTSCALE
 70
     1
  9
$TREEDEPTH
 70
  3020
  9
$CMLSTYLE
  2
Standard
  9
$CMLJUST
 70
     0
  9
$CMLSCALE
 40
20.0
  9
$PROXYGRAPHICS
 70
     1
  9
$MEASUREMENT
 70
     0
  9
$CELWEIGHT
370
    -1
  9
$ENDCAPS
280
     0
  9
$JOINSTYLE
280
     0
  9
$LWDISPLAY
290
     0
  9
$INSUNITS
 70
     4
  9
$HYPERLINKBASE
  1

  9
$STYLESHEET
  1

  9
$XEDIT
290
     1
  9
$CEPSNTYPE
380
     0
  9
$PSTYLEMODE
290
     1
  9
$FINGERPRINTGUID
  2
{41A5BBBA-3611-3343-B1B0-1501DD174048}
  9
$VERSIONGUID
  2
{90DA14C6-F0B5-A749-9E1D-3C801CA15E4D}
  9
$EXTNAMES
290
     1
  9
$PSVPSCALE
 40
0.0
  9
$OLESTARTUP
290
     0
  9
$SORTENTS
280
   127
  9
$INDEXCTL
280
     0
  9
$HIDETEXT
280
     1
  9
$XCLIPFRAME
280
     0
  9
$HALOGAP
280
     0
  9
$OBSCOLOR
 70
   257
  9
$OBSLTYPE
280
     0
  9
$INTERSECTIONDISPLAY
280
     0
  9
$INTERSECTIONCOLOR
 70
   257
  9
$DIMASSOC
280
     1
  9
$PROJECTNAME
  1

  9
$CAMERADISPLAY
290
     0
  9
$LENSLENGTH
 40
50.0
  9
$CAMERAHEIGHT
 40
0.0
  9
$STEPSPERSEC
 40
2.0
  9
$STEPSIZE
 40
6.0
  9
$3DDWFPREC
 40
2.0
  9
$PSOLWIDTH
 40
0.25
  9
$PSOLHEIGHT
 40
4.0
  9
$LOFTANG1
 40
1.570796326794896
  9
$LOFTANG2
 40
1.570796326794896
  9
$LOFTMAG1
 40
0.0
  9
$LOFTMAG2
 40
0.0
  9
$LOFTPARAM
 70
     7
  9
$LOFTNORMALS
280
     1
  9
$LATITUDE
 40
37.795
  9
$LONGITUDE
 40
-122.394
  9
$NORTHDIRECTION
 40
0.0
  9
$TIMEZONE
 70
 -8000
  9
$LIGHTGLYPHDISPLAY
280
     1
  9
$TILEMODELIGHTSYNCH
280
     1
  9
$CMATERIAL
347
3D
  9
$SOLIDHIST
280
     0
  9
$SHOWHIST
280
     1
  9
$DWFFRAME
280
     2
  9
$DGNFRAME
280
     0
  9
$REALWORLDSCALE
290
     1
  9
$INTERFERECOLOR
 62
     1
  9
$INTERFEREOBJVS
345
60
  9
$INTERFEREVPVS
346
61
  9
$CSHADOW
280
     0
  9
$SHADOWPLANELOCATION
 40
0.0
  0
ENDSEC
  0
SECTION
  2
CLASSES
  0
CLASS
  1
ACDBDICTIONARYWDFLT
  2
AcDbDictionaryWithDefault
  3
ObjectDBX Classes
 90
        0
 91
        1
280
     0
281
     0
  0
CLASS
  1
TABLESTYLE
  2
AcDbTableStyle
  3
ObjectDBX Classes
 90
     4095
 91
        1
280
     0
281
     0
  0
CLASS
  1
DICTIONARYVAR
  2
AcDbDictionaryVar
  3
ObjectDBX Classes
 90
        0
 91
       12
280
     0
281
     0
  0
CLASS
  1
MATERIAL
  2
AcDbMaterial
  3
ObjectDBX Classes
 90
     1153
 91
        3
280
     0
281
     0
  0
CLASS
  1
VISUALSTYLE
  2
AcDbVisualStyle
  3
ObjectDBX Classes
 90
     4095
 91
       24
280
     0
281
     0
  0
CLASS
  1
SCALE
  2
AcDbScale
  3
ObjectDBX Classes
 90
     1153
 91
       17
280
     0
281
     0
  0
CLASS
  1
MLEADERSTYLE
  2
AcDbMLeaderStyle
  3
ACDB_MLEADERSTYLE_CLASS
 90
     4095
 91
        1
280
     0
281
     0
  0
CLASS
  1
ACDBSECTIONVIEWSTYLE
  2
AcDbSectionViewStyle
  3
ObjectDBX Classes
 90
     1025
 91
        1
280
     0
281
     0
  0
CLASS
  1
ACDBDETAILVIEWSTYLE
  2
AcDbDetailViewStyle
  3
ObjectDBX Classes
 90
     1025
 91
        1
280
     0
281
     0
  0
CLASS
  1
SORTENTSTABLE
  2
AcDbSortentsTable
  3
ObjectDBX Classes
 90
        0
 91
        1
280
     0
281
     0
  0
CLASS
  1
PLOTSETTINGS
  2
AcDbPlotSettings
  3
ObjectDBX Classes
 90
        0
 91
        1
280
     0
281
     0
  0
CLASS
  1
ACAD_EVALUATION_GRAPH
  2
AcDbEvalGraph
  3
ObjectDBX Classes
 90
     1153
 91
        0
280
     0
281
     0
  0
CLASS
  1
BLOCKLINEARPARAMETER
  2
AcDbBlockLinearParameter
  3
ObjectDBX Classes
 90
     1153
 91
        0
280
     0
281
     0
  0
CLASS
  1
BLOCKLINEARGRIP
  2
AcDbBlockLinearGrip
  3
ObjectDBX Classes
 90
     1153
 91
        0
280
     0
281
     0
  0
CLASS
  1
BLOCKGRIPLOCATIONCOMPONENT
  2
AcDbBlockGripExpr
  3
ObjectDBX Classes
 90
     1153
 91
        0
280
     0
281
     0
  0
CLASS
  1
BLOCKSTRETCHACTION
  2
AcDbBlockStretchAction
  3
ObjectDBX Classes
 90
     1153
 91
        0
280
     0
281
     0
  0
CLASS
  1
BLOCKMOVEACTION
  2
AcDbBlockMoveAction
  3
ObjectDBX Classes
 90
     1153
 91
        0
280
     0
281
     0
  0
CLASS
  1
ACDB_DYNAMICBLOCKPURGEPREVENTER_VERSION
  2
AcDbDynamicBlockPurgePreventer
  3
ObjectDBX Classes
 90
     1153
 91
        0
280
     0
281
     0
  0
CLASS
  1
ACDB_BLOCKREPRESENTATION_DATA
  2
AcDbBlockRepresentationData
  3
ObjectDBX Classes
 90
     1153
 91
        0
280
     0
281
     0
  0
CLASS
  1
FIELD
  2
AcDbField
  3
ObjectDBX Classes
 90
     1152
 91
        0
280
     0
281
     0
  0
CLASS
  1
FIELDLIST
  2
AcDbFieldList
  3
ObjectDBX Classes
 90
     1152
 91
        1
280
     0
281
     0
  0
CLASS
  1
ACAECUSTOBJ
  2
AcAeEditorObj
  3
AcAeEditorObj
 90
     1024
 91
        0
280
     1
281
     0
  0
CLASS
  1
LINEARPARAMETERENTITY
  2
AcDbBlockLinearParameterEntity
  3
ObjectDBX Classes
 90
     1025
 91
        0
280
     0
281
     1
  0
CLASS
  1
ACAEEEMGROBJ
  2
AcAeEEMgrObj
  3
AcAeEEMgrObj
 90
     1024
 91
        0
280
     0
281
     0
  0
CLASS
  1
LINEARGRIPENTITY
  2
AcDbBlockLinearGripEntity
  3
ObjectDBX Classes
 90
     1025
 91
        0
280
     0
281
     1
  0
CLASS
  1
STRETCHACTIONENTITY
  2
AcDbBlockStretchActionEntity
  3
ObjectDBX Classes
 90
     1025
 91
        0
280
     0
281
     1
  0
CLASS
  1
PDFDEFINITION
  2
AcDbPdfDefinition
  3
ObjectDBX Classes
 90
     1153
 91
        0
280
     0
281
     0
  0
CLASS
  1
PDFUNDERLAY
  2
AcDbPdfReference
  3
ObjectDBX Classes
 90
     4095
 91
        0
280
     0
281
     1
  0
CLASS
  1
MOVEACTIONENTITY
  2
AcDbBlockMoveActionEntity
  3
ObjectDBX Classes
 90
     1025
 91
        0
280
     0
281
     1
  0
CLASS
  1
BLOCKVISIBILITYPARAMETER
  2
AcDbBlockVisibilityParameter
  3
ObjectDBX Classes
 90
     1153
 91
        0
280
     0
281
     0
  0
CLASS
  1
MULTILEADER
  2
AcDbMLeader
  3
ACDB_MLEADER_CLASS
 90
     1025
 91
        0
280
     0
281
     1
  0
CLASS
  1
ACARRAYJIGENTITY
  2
AcArrayJigEntity
  3
ACAD_ARRAY
 90
      129
 91
        0
280
     1
281
     1
  0
CLASS
  1
ACDBASSOCNETWORK
  2
AcDbAssocNetwork
  3
ObjectDBX Classes
 90
     1025
 91
        0
280
     0
281
     0
  0
CLASS
  1
ACDBASSOCACTION
  2
AcDbAssocAction
  3
ObjectDBX Classes
 90
     1025
 91
        0
280
     0
281
     0
  0
CLASS
  1
ACDBASSOCARRAYACTIONBODY
  2
AcDbAssocArrayActionBody
  3
ObjectDBX Classes
 90
     1025
 91
        0
280
     0
281
     0
  0
CLASS
  1
ACDBASSOCVERTEXACTIONPARAM
  2
AcDbAssocVertexActionParam
  3
ObjectDBX Classes
 90
     1025
 91
        0
280
     0
281
     0
  0
CLASS
  1
ACDBASSOCDEPENDENCY
  2
AcDbAssocDependency
  3
ObjectDBX Classes
 90
     1025
 91
        0
280
     0
281
     0
  0
CLASS
  1
ACDBASSOCARRAYRECTANGULARPARAMETERS
  2
AcDbAssocArrayRectangularParameters
  3
ObjectDBX Classes
 90
     1025
 91
        0
280
     0
281
     0
  0
CLASS
  1
DIMASSOC
  2
AcDbDimAssoc
  3
"AcDbDimAssoc|Product Desc:     AcDim ARX App For Dimension|Company:          Autodesk, Inc.|WEB Address:      www.autodesk.com"
 90
        0
 91
        0
280
     0
281
     0
  0
CLASS
  1
CELLSTYLEMAP
  2
AcDbCellStyleMap
  3
ObjectDBX Classes
 90
     1152
 91
        1
280
     0
281
     0
  0
ENDSEC
  0
SECTION
  2
TABLES
  0
TABLE
  2
VPORT
  5
30
330
0
100
AcDbSymbolTable
 70
     1
  0
VPORT
  5
31
330
30
100
AcDbSymbolTableRecord
100
AcDbViewportTableRecord
  2
*Active
 70
     0
 10
0.0
 20
0.0
 11
1.0
 21
1.0
 12
2893.382562238701
 22
-1092.694509528841
 13
0.0
 23
0.0
 14
10.0
 24
10.0
 15
10.0
 25
10.0
 16
0.0
 26
0.0
 36
1.0
 17
0.0
 27
0.0
 37
0.0
 40
910.9719825632607
 41
1.657629744384198
 42
50.0
 43
0.0
 44
0.0
 50
0.0
 51
0.0
 71
     0
 72
   100
 73
     1
 74
     3
 75
     0
 76
     0
 77
     0
 78
     0
281
     0
 65
     1
110
0.0
120
0.0
130
0.0
111
1.0
121
0.0
131
0.0
112
0.0
122
1.0
132
0.0
 79
     0
146
0.0
348
32
 60
     3
 61
     5
292
     1
282
     1
141
0.0
142
0.0
 63
   250
421
  3355443
1001
ACAD_NAV_VCDISPLAY
1070
     3
  0
ENDTAB
  0
TABLE
  2
LTYPE
  5
2B
330
0
100
AcDbSymbolTable
 70
     3
  0
LTYPE
  5
2C
330
2B
100
AcDbSymbolTableRecord
100
AcDbLinetypeTableRecord
  2
ByBlock
 70
     0
  3

 72
    65
 73
     0
 40
0.0
  0
LTYPE
  5
2D
330
2B
100
AcDbSymbolTableRecord
100
AcDbLinetypeTableRecord
  2
ByLayer
 70
     0
  3

 72
    65
 73
     0
 40
0.0
  0
LTYPE
  5
16
330
2B
100
AcDbSymbolTableRecord
100
AcDbLinetypeTableRecord
  2
Continuous
 70
     0
  3
Solid line
 72
    65
 73
     0
 40
0.0
  0
LTYPE
  5
260
330
2B
100
AcDbSymbolTableRecord
100
AcDbLinetypeTableRecord
  2
HIDDEN2
 70
     0
  3
Hidden (.5x) _ _ _ _ _ _ _ _ _ _ _ _ _ _ _ _ _
 72
    65
 73
     2
 40
4.762499999999999
 49
3.174999999999999
 74
     0
 49
-1.587499999999999
 74
     0
  0
LTYPE
  5
264
330
2B
100
AcDbSymbolTableRecord
100
AcDbLinetypeTableRecord
  2
HIDDENX2
 70
     0
  3
Hidden (2x) ____ ____ ____ ____ ____ ____ ____
 72
    65
 73
     2
 40
19.05
 49
12.7
 74
     0
 49
-6.349999999999999
 74
     0
  0
ENDTAB
  0
TABLE
  2
LAYER
  5
22
102
{ACAD_XDICTIONARY
360
23
102
}
330
0
100
AcDbSymbolTable
 70
     5
  0
LAYER
  5
6
102
{ACAD_XDICTIONARY
360
7
102
}
330
22
100
AcDbSymbolTableRecord
100
AcDbLayerTableRecord
  2
0
 70
     0
 62
     7
  6
Continuous
370
    -3
390
9
347
C
348
0
  0
LAYER
  5
175
102
{ACAD_XDICTIONARY
360
176
102
}
330
22
100
AcDbSymbolTableRecord
100
AcDbLayerTableRecord
  2
Fastener
 70
     0
 62
     7
  6
Continuous
370
    -3
390
9
347
C
348
0
  0
LAYER
  5
96
102
{ACAD_XDICTIONARY
360
97
102
}
330
22
100
AcDbSymbolTableRecord
100
AcDbLayerTableRecord
  2
Dimension
 70
     0
 62
     1
  6
Continuous
370
    -3
390
9
347
C
348
0
  0
LAYER
  5
1B2
330
22
100
AcDbSymbolTableRecord
100
AcDbLayerTableRecord
  2
Defpoints
 70
     0
 62
     7
  6
Continuous
290
     0
370
    -3
390
9
347
C
348
0
  0
LAYER
  5
74
330
22
100
AcDbSymbolTableRecord
100
AcDbLayerTableRecord
  2
Layout
 70
     0
 62
   154
  6
Continuous
370
    -3
390
9
347
C
348
0
1001
AcAecLayerStandard
1000

1000

  0
ENDTAB
  0
TABLE
  2
STYLE
  5
28
330
0
100
AcDbSymbolTable
 70
     2
  0
STYLE
  5
29
330
28
100
AcDbSymbolTableRecord
100
AcDbTextStyleTableRecord
  2
Standard
 70
     0
 40
0.0
 41
1.0
 50
0.0
 71
     0
 42
1.0
  3
txt
  4

  0
STYLE
  5
77
330
28
100
AcDbSymbolTableRecord
100
AcDbTextStyleTableRecord
  2
ROMANS
 70
     0
 40
0.0
 41
1.0
 50
0.0
 71
     0
 42
150.0
  3
romans.shx
  4

  0
ENDTAB
  0
TABLE
  2
VIEW
  5
2E
330
0
100
AcDbSymbolTable
 70
     1
  0
ENDTAB
  0
TABLE
  2
UCS
  5
2F
330
0
100
AcDbSymbolTable
 70
     0
  0
ENDTAB
  0
TABLE
  2
APPID
  5
35
330
0
100
AcDbSymbolTable
 70
     5
  0
APPID
  5
27
330
35
100
AcDbSymbolTableRecord
100
AcDbRegAppTableRecord
  2
ACAD
 70
     0
  0
APPID
  5
1A
330
35
100
AcDbSymbolTableRecord
100
AcDbRegAppTableRecord
  2
AcadStringInfo
 70
     0
  0
APPID
  5
34
330
35
100
AcDbSymbolTableRecord
100
AcDbRegAppTableRecord
  2
ACAD_NAV_VCDISPLAY
 70
     0
  0
APPID
  5
1D
330
35
100
AcDbSymbolTableRecord
100
AcDbRegAppTableRecord
  2
ACAD_PSEXT
 70
     0
  0
APPID
  5
75
330
35
100
AcDbSymbolTableRecord
100
AcDbRegAppTableRecord
  2
AcAecLayerStandard
 70
     0
  0
ENDTAB
  0
TABLE
  2
DIMSTYLE
  5
36
330
0
100
AcDbSymbolTable
 70
     2
100
AcDbDimStyleTable
 71
     2
340
37
340
38
  0
DIMSTYLE
105
37
102
{ACAD_REACTORS
330
288
102
}
330
36
100
AcDbSymbolTableRecord
100
AcDbDimStyleTableRecord
  2
ISO-25
 70
     0
 41
2.5
 42
1.5
 43
3.75
 44
1.25
 73
     0
 74
     0
 77
     1
 78
     8
140
4.0
141
2.5
143
0.03937007874016
147
1.5
171
     3
172
     1
271
     2
272
     2
274
     3
283
     0
284
     8
340
29
  0
DIMSTYLE
105
38
102
{ACAD_REACTORS
330
1A6
330
1B6
330
1C4
330
21F
330
245
330
252
330
26B
102
}
330
36
100
AcDbSymbolTableRecord
100
AcDbDimStyleTableRecord
  2
FP
 70
     0
 41
2.5
 42
1.5
 43
3.75
 44
1.25
 73
     0
 74
     0
 77
     1
 78
     8
140
4.0
141
2.5
143
0.03937007874016
147
1.5
171
     3
172
     1
176
   256
177
   256
178
   256
271
     1
272
     2
274
     3
283
     0
284
     8
340
29
  0
ENDTAB
  0
TABLE
  2
BLOCK_RECORD
  5
1
330
0
100
AcDbSymbolTable
 70
     8
  0
BLOCK_RECORD
  5
2
102
{ACAD_XDICTIONARY
360
3
102
}
330
1
100
AcDbSymbolTableRecord
100
AcDbBlockTableRecord
  2
*Model_Space
340
18
 70
     0
280
     1
281
     0
  0
BLOCK_RECORD
  5
1E
330
1
100
AcDbSymbolTableRecord
100
AcDbBlockTableRecord
  2
*Paper_Space
340
21
 70
     0
280
     1
281
     0
  0
BLOCK_RECORD
  5
1A7
330
1
100
AcDbSymbolTableRecord
100
AcDbBlockTableRecord
  2
*D0
340
0
 70
     0
280
     1
281
     0
  0
BLOCK_RECORD
  5
1B7
330
1
100
AcDbSymbolTableRecord
100
AcDbBlockTableRecord
  2
*D1
340
0
 70
     0
280
     1
281
     0
  0
BLOCK_RECORD
  5
1C5
330
1
100
AcDbSymbolTableRecord
100
AcDbBlockTableRecord
  2
*D2
340
0
 70
     0
280
     1
281
     0
  0
BLOCK_RECORD
  5
220
330
1
100
AcDbSymbolTableRecord
100
AcDbBlockTableRecord
  2
*D3
340
0
 70
     0
280
     1
281
     0
  0
BLOCK_RECORD
  5
246
330
1
100
AcDbSymbolTableRecord
100
AcDbBlockTableRecord
  2
*D4
340
0
 70
     0
280
     1
281
     0
  0
BLOCK_RECORD
  5
253
330
1
100
AcDbSymbolTableRecord
100
AcDbBlockTableRecord
  2
*D5
340
0
 70
     0
280
     1
281
     0
  0
BLOCK_RECORD
  5
26C
330
1
100
AcDbSymbolTableRecord
100
AcDbBlockTableRecord
  2
*D6
340
0
 70
     0
280
     1
281
     0
  0
BLOCK_RECORD
  5
289
330
1
100
AcDbSymbolTableRecord
100
AcDbBlockTableRecord
  2
*D7
340
0
 70
     0
280
     1
281
     0
  0
ENDTAB
  0
ENDSEC
  0
SECTION
  2
BLOCKS
  0
BLOCK
  5
5
330
2
100
AcDbEntity
  8
0
100
AcDbBlockBegin
  2
*Model_Space
 70
     0
 10
0.0
 20
0.0
 30
0.0
  3
*Model_Space
  1

  0
ENDBLK
  5
17
330
2
100
AcDbEntity
  8
0
100
AcDbBlockEnd
  0
BLOCK
  5
1F
330
1E
100
AcDbEntity
 67
     1
  8
0
100
AcDbBlockBegin
  2
*Paper_Space
 70
     0
 10
0.0
 20
0.0
 30
0.0
  3
*Paper_Space
  1

  0
ENDBLK
  5
20
330
1E
100
AcDbEntity
 67
     1
  8
0
100
AcDbBlockEnd
  0
BLOCK
  5
1A8
330
1A7
100
AcDbEntity
  8
0
100
AcDbBlockBegin
  2
*D0
 70
     1
 10
0.0
 20
0.0
 30
0.0
  3
*D0
  1

  0
LINE
  5
1A9
330
1A7
100
AcDbEntity
  8
Dimension
440
 16777216
370
    -2
100
AcDbLine
 10
2802.990958950731
 20
-1283.545540593551
 30
0.0
 11
2781.592349903446
 21
-1283.545540593551
 31
0.0
  0
LINE
  5
1AA
330
1A7
100
AcDbEntity
  8
Dimension
440
 16777216
370
    -2
100
AcDbLine
 10
2795.668929211507
 20
-1265.599742124344
 30
0.0
 11
2781.592349903446
 21
-1265.599742124344
 31
0.0
  0
LINE
  5
1AB
330
1A7
100
AcDbEntity
  8
Dimension
440
 16777216
370
    -2
100
AcDbLine
 10
2782.842349903447
 20
-1281.045540593551
 30
0.0
 11
2782.842349903447
 21
-1268.099742124344
 31
0.0
  0
LINE
  5
1AC
330
1A7
100
AcDbEntity
  8
Dimension
440
 16777216
370
    -2
100
AcDbLine
 10
2782.842349903447
 20
-1265.599742124344
 30
0.0
 11
2782.842349903447
 21
-1237.56640879101
 31
0.0
  0
SOLID
  5
1AD
330
1A7
100
AcDbEntity
  8
Dimension
440
 16777216
100
AcDbTrace
 10
2782.42568323678
 20
-1281.045540593551
 30
0.0
 11
2783.259016570113
 21
-1281.045540593551
 31
0.0
 12
2782.842349903447
 22
-1283.545540593551
 32
0.0
 13
2782.842349903447
 23
-1283.545540593551
 33
0.0
  0
SOLID
  5
1AF
330
1A7
100
AcDbEntity
  8
Dimension
440
 16777216
100
AcDbTrace
 10
2782.42568323678
 20
-1268.099742124344
 30
0.0
 11
2783.259016570113
 21
-1268.099742124344
 31
0.0
 12
2782.842349903447
 22
-1265.599742124344
 32
0.0
 13
2782.842349903447
 23
-1265.599742124344
 33
0.0
  0
MTEXT
  5
1B0
330
1A7
100
AcDbEntity
  8
Dimension
440
 16777216
100
AcDbMText
 10
2778.542349903447
 20
-1250.333075457676
 30
0.0
 40
4.0
 41
0.0
 46
0.0
 71
     5
 72
     1
  1
6.75\H0.6x;\S+0.25^ -0.25
 11
0.0000000000000001
 21
1.0
 31
0.0
 73
     1
 44
1.0
  0
POINT
  5
1B1
330
1A7
100
AcDbEntity
  8
Defpoints
 62
     0
440
 16777216
100
AcDbPoint
 10
2804.490958950731
 20
-1283.545540593551
 30
0.0
  0
POINT
  5
1B3
330
1A7
100
AcDbEntity
  8
Defpoints
 62
     0
440
 16777216
100
AcDbPoint
 10
2797.168929211507
 20
-1265.599742124344
 30
0.0
  0
POINT
  5
1B4
330
1A7
100
AcDbEntity
  8
Defpoints
 62
     0
440
 16777216
100
AcDbPoint
 10
2782.842349903447
 20
-1265.599742124344
 30
0.0
  0
ENDBLK
  5
1B5
330
1A7
100
AcDbEntity
  8
0
100
AcDbBlockEnd
  0
BLOCK
  5
1B8
330
1B7
100
AcDbEntity
  8
0
100
AcDbBlockBegin
  2
*D1
 70
     1
 10
0.0
 20
0.0
 30
0.0
  3
*D1
  1

  0
LINE
  5
1B9
330
1B7
100
AcDbEntity
  8
Dimension
440
 16777216
370
    -2
100
AcDbLine
 10
2811.812988689956
 20
-1279.918600175151
 30
0.0
 11
2811.812988689956
 21
-1303.952253648064
 31
0.0
  0
LINE
  5
1BA
330
1B7
100
AcDbEntity
  8
Dimension
440
 16777216
370
    -2
100
AcDbLine
 10
2797.168929211507
 20
-1279.91860017515
 30
0.0
 11
2797.168929211507
 21
-1303.952253648064
 31
0.0
  0
LINE
  5
1BB
330
1B7
100
AcDbEntity
  8
Dimension
440
 16777216
370
    -2
100
AcDbLine
 10
2809.312988689956
 20
-1302.702253648064
 30
0.0
 11
2799.668929211506
 21
-1302.702253648064
 31
0.0
  0
LINE
  5
1BC
330
1B7
100
AcDbEntity
  8
Dimension
440
 16777216
370
    -2
100
AcDbLine
 10
2797.168929211507
 20
-1302.702253648064
 30
0.0
 11
2771.610595878173
 21
-1302.702253648064
 31
0.0
  0
SOLID
  5
1BD
330
1B7
100
AcDbEntity
  8
Dimension
440
 16777216
100
AcDbTrace
 10
2809.312988689956
 20
-1302.285586981398
 30
0.0
 11
2809.312988689956
 21
-1303.118920314731
 31
0.0
 12
2811.812988689956
 22
-1302.702253648064
 32
0.0
 13
2811.812988689956
 23
-1302.702253648064
 33
0.0
  0
SOLID
  5
1BE
330
1B7
100
AcDbEntity
  8
Dimension
440
 16777216
100
AcDbTrace
 10
2799.668929211506
 20
-1302.285586981398
 30
0.0
 11
2799.668929211506
 21
-1303.118920314731
 31
0.0
 12
2797.168929211507
 22
-1302.702253648064
 32
0.0
 13
2797.168929211507
 23
-1302.702253648064
 33
0.0
  0
MTEXT
  5
1BF
330
1B7
100
AcDbEntity
  8
Dimension
440
 16777216
100
AcDbMText
 10
2780.643929211507
 20
-1298.402253648064
 30
0.0
 40
4.0
 41
0.0
 46
0.0
 71
     5
 72
     1
  1
4.0\H0.6x;\S+0.1^ -0.0
 73
     1
 44
1.0
  0
POINT
  5
1C0
330
1B7
100
AcDbEntity
  8
Defpoints
 62
     0
440
 16777216
100
AcDbPoint
 10
2811.812988689956
 20
-1278.418600175151
 30
0.0
  0
POINT
  5
1C1
330
1B7
100
AcDbEntity
  8
Defpoints
 62
     0
440
 16777216
100
AcDbPoint
 10
2797.168929211507
 20
-1278.41860017515
 30
0.0
  0
POINT
  5
1C2
330
1B7
100
AcDbEntity
  8
Defpoints
 62
     0
440
 16777216
100
AcDbPoint
 10
2797.168929211507
 20
-1302.702253648064
 30
0.0
  0
ENDBLK
  5
1C3
330
1B7
100
AcDbEntity
  8
0
100
AcDbBlockEnd
  0
BLOCK
  5
1C6
330
1C5
100
AcDbEntity
  8
0
100
AcDbBlockBegin
  2
*D2
 70
     1
 10
0.0
 20
0.0
 30
0.0
  3
*D2
  1

  0
LINE
  5
1C7
330
1C5
100
AcDbEntity
  8
Dimension
440
 16777216
370
    -2
100
AcDbLine
 10
2814.737531180549
 20
-1258.173326054003
 30
0.0
 11
2814.737531180549
 21
-1318.482015461621
 31
0.0
  0
LINE
  5
1C8
330
1C5
100
AcDbEntity
  8
Dimension
440
 16777216
370
    -2
100
AcDbLine
 10
2793.971527712517
 20
-1261.842901426386
 30
0.0
 11
2793.971527712517
 21
-1318.482015461621
 31
0.0
  0
LINE
  5
1C9
330
1C5
100
AcDbEntity
  8
Dimension
440
 16777216
370
    -2
100
AcDbLine
 10
2812.23753118055
 20
-1317.232015461621
 30
0.0
 11
2796.471527712517
 21
-1317.232015461621
 31
0.0
  0
LINE
  5
1CA
330
1C5
100
AcDbEntity
  8
Dimension
440
 16777216
370
    -2
100
AcDbLine
 10
2793.971527712517
 20
-1317.232015461621
 30
0.0
 11
2770.738194379184
 21
-1317.232015461621
 31
0.0
  0
SOLID
  5
1CB
330
1C5
100
AcDbEntity
  8
Dimension
440
 16777216
100
AcDbTrace
 10
2812.23753118055
 20
-1316.815348794954
 30
0.0
 11
2812.23753118055
 21
-1317.648682128288
 31
0.0
 12
2814.737531180549
 22
-1317.232015461621
 32
0.0
 13
2814.737531180549
 23
-1317.232015461621
 33
0.0
  0
SOLID
  5
1CC
330
1C5
100
AcDbEntity
  8
Dimension
440
 16777216
100
AcDbTrace
 10
2796.471527712517
 20
-1316.815348794954
 30
0.0
 11
2796.471527712517
 21
-1317.648682128288
 31
0.0
 12
2793.971527712517
 22
-1317.232015461621
 32
0.0
 13
2793.971527712517
 23
-1317.232015461621
 33
0.0
  0
MTEXT
  5
1CD
330
1C5
100
AcDbEntity
  8
Dimension
440
 16777216
100
AcDbMText
 10
2781.10486104585
 20
-1312.932015461621
 30
0.0
 40
4.0
 41
0.0
 46
0.0
 71
     5
 72
     1
  1
4.8\H0.6x;\S+0.0^ -0.18
 73
     1
 44
1.0
  0
POINT
  5
1CE
330
1C5
100
AcDbEntity
  8
Defpoints
 62
     0
440
 16777216
100
AcDbPoint
 10
2814.737531180549
 20
-1256.673326054003
 30
0.0
  0
POINT
  5
1CF
330
1C5
100
AcDbEntity
  8
Defpoints
 62
     0
440
 16777216
100
AcDbPoint
 10
2793.971527712517
 20
-1260.342901426386
 30
0.0
  0
POINT
  5
1D0
330
1C5
100
AcDbEntity
  8
Defpoints
 62
     0
440
 16777216
100
AcDbPoint
 10
2793.971527712517
 20
-1317.232015461621
 30
0.0
  0
ENDBLK
  5
1D1
330
1C5
100
AcDbEntity
  8
0
100
AcDbBlockEnd
  0
BLOCK
  5
221
330
220
100
AcDbEntity
  8
0
100
AcDbBlockBegin
  2
*D3
 70
     1
 10
0.0
 20
0.0
 30
0.0
  3
*D3
  1

  0
LINE
  5
222
330
220
100
AcDbEntity
  8
Dimension
440
 16777216
370
    -2
100
AcDbLine
 10
2857.240095336583
 20
-1126.961248345149
 30
0.0
 11
2873.066601399576
 21
-1164.286762916965
 31
0.0
  0
MTEXT
  5
223
330
220
100
AcDbEntity
  8
Dimension
440
 16777216
100
AcDbMText
 10
2864.69141521075
 20
-1135.568741780753
 30
0.0
 40
4.0
 41
0.0
 46
0.0
 71
     5
 72
     1
  1
{\f????|b0|i0|c0|p54;TX-25}
 11
0.390370891135703
 21
-0.9206576819610624
 31
0.0
 73
     1
 44
1.0
  0
SOLID
  5
224
330
220
100
AcDbEntity
  8
Dimension
440
 16777216
100
AcDbTrace
 10
2873.45020876706
 20
-1164.124108378992
 30
0.0
 11
2872.682994032092
 21
-1164.449417454938
 31
0.0
 12
2874.042528627416
 22
-1166.588407121868
 32
0.0
 13
2874.042528627416
 23
-1166.588407121868
 33
0.0
  0
POINT
  5
225
330
220
100
AcDbEntity
  8
Defpoints
 62
     0
440
 16777216
100
AcDbPoint
 10
2874.042528627416
 20
-1166.588407121868
 30
0.0
  0
POINT
  5
226
330
220
100
AcDbEntity
  8
Defpoints
 62
     0
440
 16777216
100
AcDbPoint
 10
2872.640092031817
 20
-1163.280875606277
 30
0.0
  0
ENDBLK
  5
227
330
220
100
AcDbEntity
  8
0
100
AcDbBlockEnd
  0
BLOCK
  5
247
330
246
100
AcDbEntity
  8
0
100
AcDbBlockBegin
  2
*D4
 70
     1
 10
0.0
 20
0.0
 30
0.0
  3
*D4
  1

  0
LINE
  5
248
330
246
100
AcDbEntity
  8
Dimension
440
 16777216
370
    -2
100
AcDbLine
 10
2779.97816392076
 20
-1185.905394591072
 30
0.0
 11
2755.84171089351
 21
-1185.905394591072
 31
0.0
  0
LINE
  5
249
330
246
100
AcDbEntity
  8
Dimension
440
 16777216
370
    -2
100
AcDbLine
 10
2801.389932039823
 20
-1283.545540593551
 30
0.0
 11
2755.84171089351
 21
-1283.545540593551
 31
0.0
  0
LINE
  5
24A
330
246
100
AcDbEntity
  8
Dimension
440
 16777216
370
    -2
100
AcDbLine
 10
2757.091710893509
 20
-1188.405394591072
 30
0.0
 11
2757.091710893509
 21
-1281.045540593551
 31
0.0
  0
SOLID
  5
24B
330
246
100
AcDbEntity
  8
Dimension
440
 16777216
100
AcDbTrace
 10
2756.675044226843
 20
-1188.405394591072
 30
0.0
 11
2757.508377560176
 21
-1188.405394591072
 31
0.0
 12
2757.091710893509
 22
-1185.905394591072
 32
0.0
 13
2757.091710893509
 23
-1185.905394591072
 33
0.0
  0
SOLID
  5
24C
330
246
100
AcDbEntity
  8
Dimension
440
 16777216
100
AcDbTrace
 10
2756.675044226843
 20
-1281.045540593551
 30
0.0
 11
2757.508377560176
 21
-1281.045540593551
 31
0.0
 12
2757.091710893509
 22
-1283.545540593551
 32
0.0
 13
2757.091710893509
 23
-1283.545540593551
 33
0.0
  0
MTEXT
  5
24D
330
246
100
AcDbEntity
  8
Dimension
440
 16777216
100
AcDbMText
 10
2752.79171089351
 20
-1232.179805162185
 30
0.0
 40
4.0
 41
0.0
 46
0.0
 71
     5
 72
     1
  1
L\H0.6x;\S+0.75^ -0.75
 11
0.0000000000000001
 21
1.0
 31
0.0
 73
     1
 44
1.0
  0
POINT
  5
24E
330
246
100
AcDbEntity
  8
Defpoints
 62
     0
440
 16777216
100
AcDbPoint
 10
2781.47816392076
 20
-1185.905394591072
 30
0.0
  0
POINT
  5
24F
330
246
100
AcDbEntity
  8
Defpoints
 62
     0
440
 16777216
100
AcDbPoint
 10
2802.889932039823
 20
-1283.545540593551
 30
0.0
  0
POINT
  5
250
330
246
100
AcDbEntity
  8
Defpoints
 62
     0
440
 16777216
100
AcDbPoint
 10
2757.091710893509
 20
-1283.545540593551
 30
0.0
  0
ENDBLK
  5
251
330
246
100
AcDbEntity
  8
0
100
AcDbBlockEnd
  0
BLOCK
  5
254
330
253
100
AcDbEntity
  8
0
100
AcDbBlockBegin
  2
*D5
 70
     1
 10
0.0
 20
0.0
 30
0.0
  3
*D5
  1

  0
LINE
  5
255
330
253
100
AcDbEntity
  8
Dimension
  6
Continuous
440
 16777216
370
    -2
100
AcDbLine
 10
2851.903162291696
 20
-1174.263069037565
 30
0.0
 11
2851.903162291696
 21
-1217.059452684599
 31
0.0
  0
LINE
  5
256
330
253
100
AcDbEntity
  8
Dimension
  6
Continuous
440
 16777216
370
    -2
100
AcDbLine
 10
2902.274290104193
 20
-1174.263069037565
 30
0.0
 11
2902.274290104193
 21
-1217.059452684599
 31
0.0
  0
LINE
  5
257
330
253
100
AcDbEntity
  8
Dimension
  6
Continuous
440
 16777216
370
    -2
100
AcDbLine
 10
2854.403162291696
 20
-1215.809452684599
 30
0.0
 11
2899.774290104193
 21
-1215.809452684599
 31
0.0
  0
SOLID
  5
258
330
253
100
AcDbEntity
  8
Dimension
  6
Continuous
440
 16777216
100
AcDbTrace
 10
2854.403162291696
 20
-1215.392786017932
 30
0.0
 11
2854.403162291696
 21
-1216.226119351265
 31
0.0
 12
2851.903162291696
 22
-1215.809452684599
 32
0.0
 13
2851.903162291696
 23
-1215.809452684599
 33
0.0
  0
SOLID
  5
259
330
253
100
AcDbEntity
  8
Dimension
  6
Continuous
440
 16777216
100
AcDbTrace
 10
2899.774290104193
 20
-1215.392786017932
 30
0.0
 11
2899.774290104193
 21
-1216.226119351265
 31
0.0
 12
2902.274290104193
 22
-1215.809452684599
 32
0.0
 13
2902.274290104193
 23
-1215.809452684599
 33
0.0
  0
MTEXT
  5
25A
330
253
100
AcDbEntity
  8
Dimension
  6
Continuous
440
 16777216
100
AcDbMText
 10
2877.088726197944
 20
-1211.509452684599
 30
0.0
 40
4.0
 41
0.0
 46
0.0
 71
     5
 72
     1
  1
%%C12.75\H0.6x;\S+0.25^ -0.25
 73
     1
 44
1.0
  0
POINT
  5
25B
330
253
100
AcDbEntity
  8
Defpoints
  6
Continuous
 62
     0
440
 16777216
100
AcDbPoint
 10
2851.903162291696
 20
-1172.763069037565
 30
0.0
  0
POINT
  5
25C
330
253
100
AcDbEntity
  8
Defpoints
  6
Continuous
 62
     0
440
 16777216
100
AcDbPoint
 10
2902.274290104193
 20
-1172.763069037565
 30
0.0
  0
POINT
  5
25D
330
253
100
AcDbEntity
  8
Defpoints
  6
Continuous
 62
     0
440
 16777216
100
AcDbPoint
 10
2902.274290104193
 20
-1215.809452684599
 30
0.0
  0
ENDBLK
  5
25E
330
253
100
AcDbEntity
  8
0
100
AcDbBlockEnd
  0
BLOCK
  5
26D
330
26C
100
AcDbEntity
  8
0
100
AcDbBlockBegin
  2
*D6
 70
     1
 10
0.0
 20
0.0
 30
0.0
  3
*D6
  1

  0
LINE
  5
26E
330
26C
100
AcDbEntity
  8
Dimension
440
 16777216
370
    -2
100
AcDbLine
 10
2791.852245555933
 20
-1162.784087174844
 30
0.0
 11
2755.841710893509
 21
-1162.784087174844
 31
0.0
  0
LINE
  5
26F
330
26C
100
AcDbEntity
  8
Dimension
440
 16777216
370
    -2
100
AcDbLine
 10
2780.661540226219
 20
-1177.478801246624
 30
0.0
 11
2755.841710893509
 21
-1177.478801246624
 31
0.0
  0
LINE
  5
270
330
26C
100
AcDbEntity
  8
Dimension
440
 16777216
370
    -2
100
AcDbLine
 10
2757.091710893509
 20
-1174.978801246624
 30
0.0
 11
2757.091710893509
 21
-1165.284087174844
 31
0.0
  0
LINE
  5
271
330
26C
100
AcDbEntity
  8
Dimension
440
 16777216
370
    -2
100
AcDbLine
 10
2757.091710893509
 20
-1162.784087174844
 30
0.0
 11
2757.091710893509
 21
-1139.55075384151
 31
0.0
  0
SOLID
  5
272
330
26C
100
AcDbEntity
  8
Dimension
440
 16777216
100
AcDbTrace
 10
2756.675044226842
 20
-1174.978801246624
 30
0.0
 11
2757.508377560175
 21
-1174.978801246624
 31
0.0
 12
2757.091710893509
 22
-1177.478801246624
 32
0.0
 13
2757.091710893509
 23
-1177.478801246624
 33
0.0
  0
SOLID
  5
273
330
26C
100
AcDbEntity
  8
Dimension
440
 16777216
100
AcDbTrace
 10
2756.675044226842
 20
-1165.284087174844
 30
0.0
 11
2757.508377560175
 21
-1165.284087174844
 31
0.0
 12
2757.091710893509
 22
-1162.784087174844
 32
0.0
 13
2757.091710893509
 23
-1162.784087174844
 33
0.0
  0
MTEXT
  5
274
330
26C
100
AcDbEntity
  8
Dimension
440
 16777216
100
AcDbMText
 10
2752.791710893509
 20
-1149.917420508177
 30
0.0
 40
4.0
 41
0.0
 46
0.0
 71
     5
 72
     1
  1
3.5\H0.6x;\S+0.1^ -0.15
 11
0.0000000000000001
 21
1.0
 31
0.0
 73
     1
 44
1.0
  0
POINT
  5
275
330
26C
100
AcDbEntity
  8
Defpoints
 62
     0
440
 16777216
100
AcDbPoint
 10
2793.352245555933
 20
-1162.784087174844
 30
0.0
  0
POINT
  5
276
330
26C
100
AcDbEntity
  8
Defpoints
 62
     0
440
 16777216
100
AcDbPoint
 10
2782.161540226219
 20
-1177.478801246624
 30
0.0
  0
POINT
  5
277
330
26C
100
AcDbEntity
  8
Defpoints
 62
     0
440
 16777216
100
AcDbPoint
 10
2757.091710893509
 20
-1177.478801246624
 30
0.0
  0
ENDBLK
  5
278
330
26C
100
AcDbEntity
  8
0
100
AcDbBlockEnd
  0
BLOCK
  5
28A
330
289
100
AcDbEntity
  8
0
100
AcDbBlockBegin
  2
*D7
 70
     1
 10
0.0
 20
0.0
 30
0.0
  3
*D7
  1

  0
LINE
  5
28B
330
289
100
AcDbEntity
  8
Dimension
 62
     0
440
 16777216
370
    -2
100
AcDbLine
 10
2779.27566392076
 20
-1177.475394591072
 30
0.0
 11
2755.84171089351
 21
-1177.475394591072
 31
0.0
  0
LINE
  5
28C
330
289
100
AcDbEntity
  8
Dimension
 62
     0
440
 16777216
370
    -2
100
AcDbLine
 10
2779.97816392076
 20
-1185.905394591072
 30
0.0
 11
2755.84171089351
 21
-1185.905394591072
 31
0.0
  0
LINE
  5
28D
330
289
100
AcDbEntity
  8
Dimension
 62
     0
440
 16777216
370
    -2
100
AcDbLine
 10
2757.091710893509
 20
-1179.975394591072
 30
0.0
 11
2757.091710893509
 21
-1183.405394591072
 31
0.0
  0
SOLID
  5
28E
330
289
100
AcDbEntity
  8
Dimension
 62
     0
440
 16777216
100
AcDbTrace
 10
2756.675044226843
 20
-1179.975394591072
 30
0.0
 11
2757.508377560176
 21
-1179.975394591072
 31
0.0
 12
2757.091710893509
 22
-1177.475394591072
 32
0.0
 13
2757.091710893509
 23
-1177.475394591072
 33
0.0
  0
SOLID
  5
28F
330
289
100
AcDbEntity
  8
Dimension
 62
     0
440
 16777216
100
AcDbTrace
 10
2756.675044226843
 20
-1183.405394591072
 30
0.0
 11
2757.508377560176
 21
-1183.405394591072
 31
0.0
 12
2757.091710893509
 22
-1185.905394591072
 32
0.0
 13
2757.091710893509
 23
-1185.905394591072
 33
0.0
  0
MTEXT
  5
290
330
289
100
AcDbEntity
  8
Dimension
 62
     0
440
 16777216
100
AcDbMText
 10
2753.591710893509
 20
-1181.690394591071
 30
0.0
 40
4.0
 41
0.0
 46
0.0
 71
     5
 72
     1
  1
2
 11
0.0000000000000001
 21
1.0
 31
0.0
 73
     1
 44
1.0
  0
POINT
  5
291
330
289
100
AcDbEntity
  8
Defpoints
 62
     0
440
 16777216
100
AcDbPoint
 10
2780.77566392076
 20
-1177.475394591072
 30
0.0
  0
POINT
  5
292
330
289
100
AcDbEntity
  8
Defpoints
 62
     0
440
 16777216
100
AcDbPoint
 10
2781.47816392076
 20
-1185.905394591072
 30
0.0
  0
POINT
  5
293
330
289
100
AcDbEntity
  8
Defpoints
 62
     0
440
 16777216
100
AcDbPoint
 10
2757.091710893509
 20
-1185.905394591072
 30
0.0
  0
ENDBLK
  5
294
330
289
100
AcDbEntity
  8
0
100
AcDbBlockEnd
  0
ENDSEC
  0
SECTION
  2
ENTITIES
  0
LWPOLYLINE
  5
73
330
2
100
AcDbEntity
  8
Layout
  6
Continuous
100
AcDbPolyline
 90
        4
 70
     1
 43
0.35
 10
2717.084394315666
 20
-1111.315298555529
 10
2907.084394315666
 20
-1111.315298555529
 10
2907.084394315666
 20
-1366.421330025116
 10
2717.084394315666
 20
-1366.421300936314
  0
TEXT
  5
76
330
2
100
AcDbEntity
  8
Layout
100
AcDbText
 10
2892.775888641664
 20
-1358.196847136647
 30
0.0
 40
1.05
  1
TOERENTAL:
  7
ROMANS
100
AcDbText
  0
TEXT
  5
78
330
2
100
AcDbEntity
  8
Layout
100
AcDbText
 10
2845.954554296037
 20
-1358.196847136647
 30
0.0
 40
1.05
  1
KOP:
  7
ROMANS
100
AcDbText
  0
TEXT
  5
79
330
2
100
AcDbEntity
  8
Layout
100
AcDbText
 10
2865.444956843522
 20
-1358.196847136647
 30
0.0
 40
1.05
  1
MATERIAAL:
  7
ROMANS
100
AcDbText
  0
TEXT
  5
7A
330
2
100
AcDbEntity
  8
Layout
100
AcDbText
 10
2879.098852918526
 20
-1352.3410796088
 30
0.0
 40
1.05
  1
GETEKEND:
  7
ROMANS
100
AcDbText
  0
TEXT
  5
7B
330
2
100
AcDbEntity
  8
Layout
100
AcDbText
 10
2865.443147361395
 20
-1352.262270282425
 30
0.0
 40
1.05
  1
DATUM:
  7
ROMANS
100
AcDbText
  0
TEXT
  5
7C
330
2
100
AcDbEntity
  8
Layout
100
AcDbText
 10
2892.804558475656
 20
-1352.171485185369
 30
0.0
 40
1.05
  1
CONTROLE:
  7
ROMANS
100
AcDbText
  0
TEXT
  5
7D
330
2
100
AcDbEntity
  8
Layout
100
AcDbText
 10
2846.004448287455
 20
-1352.179013673167
 30
0.0
 40
1.05
  1
SCHAAL @ A4:
  7
ROMANS
100
AcDbText
  0
TEXT
  5
7E
330
2
100
AcDbEntity
  8
Layout
100
AcDbText
 10
2845.954448287454
 20
-1338.245178658483
 30
0.0
 40
1.05
  1
PRODUCT:
  7
ROMANS
100
AcDbText
  0
LINE
  5
7F
330
2
100
AcDbEntity
  8
Layout
  6
Continuous
100
AcDbLine
 10
2845.084394296037
 20
-1336.456248937876
 30
0.0
 11
2905.084394296037
 21
-1336.456248937876
 31
0.0
  0
LINE
  5
80
330
2
100
AcDbEntity
  8
Layout
  6
Continuous
100
AcDbLine
 10
2878.228692918526
 20
-1356.621245032259
 30
0.0
 11
2878.228692918526
 21
-1350.621245032259
 31
0.0
  0
LINE
  5
81
330
2
100
AcDbEntity
  8
Layout
  6
Continuous
100
AcDbLine
 10
2845.084394296037
 20
-1356.621265723554
 30
0.0
 11
2905.084394296037
 21
-1356.621265723554
 31
0.0
  0
LINE
  5
82
330
2
100
AcDbEntity
  8
Layout
  6
Continuous
100
AcDbLine
 10
2845.084394296037
 20
-1364.421297874335
 30
0.0
 11
2905.084394296037
 21
-1364.421297874335
 31
0.0
  0
LINE
  5
83
330
2
100
AcDbEntity
  8
Layout
  6
Continuous
100
AcDbLine
 10
2905.084394296037
 20
-1364.421265723554
 30
0.0
 11
2905.084394296037
 21
-1350.621265723554
 31
0.0
  0
LINE
  5
84
330
2
100
AcDbEntity
  8
Layout
  6
Continuous
100
AcDbLine
 10
2905.084394296037
 20
-1350.621265723554
 30
0.0
 11
2845.084394296037
 21
-1350.621265723554
 31
0.0
  0
LINE
  5
85
330
2
100
AcDbEntity
  8
Layout
  6
Continuous
100
AcDbLine
 10
2845.084394296037
 20
-1350.621265723554
 30
0.0
 11
2845.084394296037
 21
-1364.421265723554
 31
0.0
  0
LINE
  5
86
330
2
100
AcDbEntity
  8
Layout
  6
Continuous
100
AcDbLine
 10
2905.084394296037
 20
-1336.456248937876
 30
0.0
 11
2905.084394296037
 21
-1349.327992579016
 31
0.0
  0
LINE
  5
87
330
2
100
AcDbEntity
  8
Layout
  6
Continuous
100
AcDbLine
 10
2905.084394296037
 20
-1349.327992579016
 30
0.0
 11
2845.084394296037
 21
-1349.327992579016
 31
0.0
  0
LINE
  5
88
330
2
100
AcDbEntity
  8
Layout
  6
Continuous
100
AcDbLine
 10
2845.084394296037
 20
-1349.327992579016
 30
0.0
 11
2845.084394296037
 21
-1336.456248937876
 31
0.0
  0
LINE
  5
89
330
2
100
AcDbEntity
  8
Layout
  6
Continuous
100
AcDbLine
 10
2845.084394296037
 20
-1336.456248937876
 30
0.0
 11
2905.084394296037
 21
-1336.456248937876
 31
0.0
  0
LINE
  5
8A
330
2
100
AcDbEntity
  8
Layout
  6
Continuous
100
AcDbLine
 10
2905.084396244706
 20
-1311.909748848865
 30
0.0
 11
2905.084396244706
 21
-1335.162973361464
 31
0.0
  0
LINE
  5
8B
330
2
100
AcDbEntity
  8
Layout
  6
Continuous
100
AcDbLine
 10
2905.084396244706
 20
-1335.162973361464
 30
0.0
 11
2845.084396244706
 21
-1335.162973361464
 31
0.0
  0
LINE
  5
8C
330
2
100
AcDbEntity
  8
Layout
  6
Continuous
100
AcDbLine
 10
2845.084396244706
 20
-1335.162973361464
 30
0.0
 11
2845.084396244706
 21
-1311.909748848865
 31
0.0
  0
LINE
  5
8D
330
2
100
AcDbEntity
  8
Layout
  6
Continuous
100
AcDbLine
 10
2845.084396244706
 20
-1311.909748848865
 30
0.0
 11
2905.084396244706
 21
-1311.909748848865
 31
0.0
  0
LINE
  5
8E
330
2
100
AcDbEntity
  8
Layout
  6
Continuous
100
AcDbLine
 10
2899.68439437799
 20
-1350.621265723554
 30
0.0
 11
2845.084288287455
 21
-1350.621265723555
 31
0.0
  0
LINE
  5
8F
330
2
100
AcDbEntity
  8
Layout
  6
Continuous
100
AcDbLine
 10
2845.084288287455
 20
-1350.621265723555
 30
0.0
 11
2905.084394296037
 21
-1350.621265723555
 31
0.0
  0
LINE
  5
90
330
2
100
AcDbEntity
  8
Layout
  6
Continuous
100
AcDbLine
 10
2891.884398475656
 20
-1350.621233572774
 30
0.0
 11
2891.884398475656
 21
-1356.621233572773
 31
0.0
  0
LINE
  5
91
330
2
100
AcDbEntity
  8
Layout
  6
Continuous
100
AcDbLine
 10
2891.884398475656
 20
-1356.621233572773
 30
0.0
 11
2891.884394296038
 21
-1364.421265723554
 31
0.0
  0
LINE
  5
92
330
2
100
AcDbEntity
  8
Layout
  6
Continuous
100
AcDbLine
 10
2864.572987361395
 20
-1350.62127718304
 30
0.0
 11
2864.572987361395
 21
-1356.62127718304
 31
0.0
  0
LINE
  5
93
330
2
100
AcDbEntity
  8
Layout
  6
Continuous
100
AcDbLine
 10
2864.572987361395
 20
-1356.62127718304
 30
0.0
 11
2864.572983181776
 21
-1364.421309333821
 31
0.0
  0
TEXT
  5
94
330
2
100
AcDbEntity
  8
Layout
100
AcDbText
 10
2861.550570558324
 20
-1329.351866671445
 30
0.0
 40
1.05
  1
Bonnetstraat 24 6718 XN Ede (NL)
  7
ROMANS
100
AcDbText
  0
LINE
  5
95
330
2
100
AcDbEntity
  8
Dimension
100
AcDbLine
 10
2845.084394296037
 20
-1350.621265723555
 30
0.0
 11
2845.084394296037
 21
-1349.327992579016
 31
0.0
  0
TEXT
  5
99
330
2
100
AcDbEntity
  8
Layout
100
AcDbText
 10
2846.161942843745
 20
-1354.412394989616
 30
0.0
 40
1.05
  1
2:1
  7
ROMANS
100
AcDbText
  0
TEXT
  5
9A
330
2
100
AcDbEntity
  8
Layout
100
AcDbText
 10
2865.378092987284
 20
-1354.525198802295
 30
0.0
 40
1.05
  1
13-03-2018
  7
ROMANS
100
AcDbText
  0
TEXT
  5
9B
330
2
100
AcDbEntity
  8
Layout
100
AcDbText
 10
2879.100136226868
 20
-1354.531244637398
 30
0.0
 40
1.05
  1
BG
  7
ROMANS
100
AcDbText
  0
TEXT
  5
9C
330
2
100
AcDbEntity
  8
Layout
100
AcDbText
 10
2892.777888083964
 20
-1354.37674129011
 30
0.0
 40
1.05
  1
XX
  7
ROMANS
100
AcDbText
  0
TEXT
  5
9D
330
2
100
AcDbEntity
  8
Layout
100
AcDbText
 10
2894.45912369196
 20
-1361.863106870455
 30
0.0
 40
2.0
  1
1500
  7
ROMANS
 72
     1
 11
2898.411504644341
 21
-1361.863106870455
 31
0.0
100
AcDbText
  0
TEXT
  5
9E
330
2
100
AcDbEntity
  8
Layout
100
AcDbText
 10
2848.319150821914
 20
-1361.221178497527
 30
0.0
 40
1.3
  1
TORX 25 mm
  7
ROMANS
 72
     1
 11
2855.066769869533
 21
-1361.221178497527
 31
0.0
100
AcDbText
  0
TEXT
  5
9F
330
2
100
AcDbEntity
  8
Layout
100
AcDbText
 10
2872.261196317193
 20
-1361.791224442679
 30
0.0
 40
2.0
  1
VERZINKT
  7
ROMANS
 72
     1
 11
2879.165958221955
 21
-1361.791224442679
 31
0.0
100
AcDbText
  0
TEXT
  5
A0
330
2
100
AcDbEntity
  8
Layout
100
AcDbText
 10
2857.449838966582
 20
-1341.853300035465
 30
0.0
 40
1.399999999999999
  1
ZELFB. TORX SCHROEF 4,8 X L BP3
  7
ROMANS
 72
     1
 11
2877.516505633249
 21
-1341.853300035465
 31
0.0
100
AcDbText
  0
TEXT
  5
A1
330
2
100
AcDbEntity
  8
Layout
100
AcDbText
 10
2861.069069236837
 20
-1344.781599073178
 30
0.0
 40
1.399999999999999
  1
Ringdiameter 10 mm EPDM
  7
ROMANS
 72
     1
 11
2876.135735903503
 21
-1344.781599073178
 31
0.0
100
AcDbText
  0
SPLINE
  5
A2
330
2
100
AcDbEntity
  8
Layout
370
     0
100
AcDbSpline
210
0.0
220
0.0
230
1.0
 70
     9
 71
     3
 72
    47
 73
    43
 74
     0
 42
0.000000001
 43
0.0000000001
 40
0.0
 40
0.0
 40
0.0
 40
0.0
 40
1.0
 40
1.0
 40
1.0
 40
2.0
 40
2.0
 40
2.0
 40
3.0
 40
3.0
 40
3.0
 40
4.0
 40
4.0
 40
4.0
 40
5.0
 40
5.0
 40
5.0
 40
6.0
 40
6.0
 40
6.0
 40
7.0
 40
7.0
 40
7.0
 40
8.0
 40
8.0
 40
8.0
 40
9.0
 40
9.0
 40
9.0
 40
10.0
 40
10.0
 40
10.0
 40
11.0
 40
11.0
 40
11.0
 40
12.0
 40
12.0
 40
12.0
 40
13.0
 40
13.0
 40
13.0
 40
14.0
 40
14.0
 40
14.0
 40
14.0
 10
2857.570355328988
 20
-1325.578478544482
 30
0.0
 10
2857.570355328988
 20
-1325.578478544482
 30
0.0
 10
2857.450611470031
 20
-1325.794852912876
 30
0.0
 10
2857.450611470031
 20
-1325.794852912876
 30
0.0
 10
2857.362335183313
 20
-1325.726626760679
 30
0.0
 10
2857.248439280259
 20
-1325.669539572107
 30
0.0
 10
2857.094443108159
 20
-1325.669539572107
 30
0.0
 10
2856.934877454249
 20
-1325.669539572107
 30
0.0
 10
2856.832120514818
 20
-1325.717994063871
 30
0.0
 10
2856.832120514818
 20
-1325.834953181921
 30
0.0
 10
2856.832120514818
 20
-1325.951633825881
 30
0.0
 10
2856.914827319725
 20
-1325.980316657212
 30
0.0
 10
2857.131480162209
 20
-1326.031555889882
 30
0.0
 10
2857.464813648652
 20
-1326.111199479792
 30
0.0
 10
2857.616025079845
 20
-1326.248208732365
 30
0.0
 10
2857.616025079845
 20
-1326.464861574849
 30
0.0
 10
2857.616025079845
 20
-1326.735538390908
 30
0.0
 10
2857.39380275555
 20
-1326.90930622344
 30
0.0
 10
2857.04320387549
 20
-1326.90930622344
 30
0.0
 10
2856.826551033006
 20
-1326.90930622344
 30
0.0
 10
2856.627163584139
 20
-1326.840801597153
 30
0.0
 10
2856.498787028375
 20
-1326.735538390908
 30
0.0
 10
2856.498787028375
 20
-1326.735538390908
 30
0.0
 10
2856.627163584139
 20
-1326.513316066612
 30
0.0
 10
2856.627163584139
 20
-1326.513316066612
 30
0.0
 10
2856.732426790385
 20
-1326.604377094237
 30
0.0
 10
2856.87500552477
 20
-1326.661464282809
 30
0.0
 10
2857.045988616396
 20
-1326.661464282809
 30
0.0
 10
2857.216971708022
 20
-1326.661464282809
 30
0.0
 10
2857.333930826072
 20
-1326.604377094237
 30
0.0
 10
2857.333930826072
 20
-1326.481848494375
 30
0.0
 10
2857.333930826072
 20
-1326.364889376325
 30
0.0
 10
2857.248439280259
 20
-1326.322282840464
 30
0.0
 10
2857.02900169687
 20
-1326.271043607794
 30
0.0
 10
2856.695389736336
 20
-1326.193906284699
 30
0.0
 10
2856.552811001951
 20
-1326.07722564074
 30
0.0
 10
2856.552811001951
 20
-1325.851940101448
 30
0.0
 10
2856.552811001951
 20
-1325.581263285388
 30
0.0
 10
2856.761109621716
 20
-1325.421697631477
 30
0.0
 10
2857.094443108159
 20
-1325.421697631477
 30
0.0
 10
2857.285476334308
 20
-1325.421697631477
 30
0.0
 10
2857.45924416684
 20
-1325.487139042767
 30
0.0
 10
2857.570355328988
 20
-1325.578478544482
 30
0.0
  0
SPLINE
  5
A3
330
2
100
AcDbEntity
  8
Layout
370
     0
100
AcDbSpline
210
0.0
220
0.0
230
1.0
 70
     9
 71
     3
 72
    35
 73
    31
 74
     0
 42
0.000000001
 43
0.0000000001
 40
0.0
 40
0.0
 40
0.0
 40
0.0
 40
1.0
 40
1.0
 40
1.0
 40
2.0
 40
2.0
 40
2.0
 40
3.0
 40
3.0
 40
3.0
 40
4.0
 40
4.0
 40
4.0
 40
5.0
 40
5.0
 40
5.0
 40
6.0
 40
6.0
 40
6.0
 40
7.0
 40
7.0
 40
7.0
 40
8.0
 40
8.0
 40
8.0
 40
9.0
 40
9.0
 40
9.0
 40
10.0
 40
10.0
 40
10.0
 40
10.0
 10
2859.095836397271
 20
-1325.729411501585
 30
0.0
 10
2859.095836397271
 20
-1325.729411501585
 30
0.0
 10
2858.887816251596
 20
-1325.888977155497
 30
0.0
 10
2858.887816251596
 20
-1325.888977155497
 30
0.0
 10
2858.816526884404
 20
-1325.772296511537
 30
0.0
 10
2858.699846240444
 20
-1325.666754831201
 30
0.0
 10
2858.526078407912
 20
-1325.666754831201
 30
0.0
 10
2858.23535145733
 20
-1325.666754831201
 30
0.0
 10
2858.084140026137
 20
-1325.880344458689
 30
0.0
 10
2858.084140026137
 20
-1326.165501927458
 30
0.0
 10
2858.084140026137
 20
-1326.447596181232
 30
0.0
 10
2858.240920939142
 20
-1326.664249023715
 30
0.0
 10
2858.528863148818
 20
-1326.664249023715
 30
0.0
 10
2858.70263098135
 20
-1326.664249023715
 30
0.0
 10
2858.825159581212
 20
-1326.55870734338
 30
0.0
 10
2858.896448948405
 20
-1326.44202669942
 30
0.0
 10
2858.896448948405
 20
-1326.44202669942
 30
0.0
 10
2859.10446909408
 20
-1326.601592353332
 30
0.0
 10
2859.10446909408
 20
-1326.601592353332
 30
0.0
 10
2858.976371012406
 20
-1326.795410320386
 30
0.0
 10
2858.782553045351
 20
-1326.90930622344
 30
0.0
 10
2858.528863148818
 20
-1326.90930622344
 30
0.0
 10
2858.084140026137
 20
-1326.90930622344
 30
0.0
 10
2857.802045772363
 20
-1326.595744397429
 30
0.0
 10
2857.802045772363
 20
-1326.165501927458
 30
0.0
 10
2857.802045772363
 20
-1325.735259457488
 30
0.0
 10
2858.081355285231
 20
-1325.421697631477
 30
0.0
 10
2858.523015192916
 20
-1325.421697631477
 30
0.0
 10
2858.779489830355
 20
-1325.421697631477
 30
0.0
 10
2858.967738315597
 20
-1325.535593534531
 30
0.0
 10
2859.095836397271
 20
-1325.729411501585
 30
0.0
  0
SPLINE
  5
A4
330
2
100
AcDbEntity
  8
Layout
370
     0
100
AcDbSpline
210
0.0
220
0.0
230
1.0
 70
     9
 71
     3
 72
    41
 73
    37
 74
     0
 42
0.000000001
 43
0.0000000001
 40
0.0
 40
0.0
 40
0.0
 40
0.0
 40
1.0
 40
1.0
 40
1.0
 40
2.0
 40
2.0
 40
2.0
 40
3.0
 40
3.0
 40
3.0
 40
4.0
 40
4.0
 40
4.0
 40
5.0
 40
5.0
 40
5.0
 40
6.0
 40
6.0
 40
6.0
 40
7.0
 40
7.0
 40
7.0
 40
8.0
 40
8.0
 40
8.0
 40
9.0
 40
9.0
 40
9.0
 40
10.0
 40
10.0
 40
10.0
 40
11.0
 40
11.0
 40
11.0
 40
12.0
 40
12.0
 40
12.0
 40
12.0
 10
2859.658075586184
 20
-1325.606882901723
 30
0.0
 10
2859.757769310618
 20
-1325.498556480481
 30
0.0
 10
2859.88029791048
 20
-1325.421697631477
 30
0.0
 10
2860.096950752964
 20
-1325.421697631477
 30
0.0
 10
2860.441701677121
 20
-1325.421697631477
 30
0.0
 10
2860.638582859172
 20
-1325.666754831201
 30
0.0
 10
2860.638582859172
 20
-1326.034340630788
 30
0.0
 10
2860.638582859172
 20
-1326.034340630788
 30
0.0
 10
2860.638582859172
 20
-1326.880901866199
 30
0.0
 10
2860.638582859172
 20
-1326.880901866199
 30
0.0
 10
2860.638582859172
 20
-1326.880901866199
 30
0.0
 10
2860.359273346304
 20
-1326.880901866199
 30
0.0
 10
2860.359273346304
 20
-1326.880901866199
 30
0.0
 10
2860.359273346304
 20
-1326.880901866199
 30
0.0
 10
2860.359273346304
 20
-1326.051606024405
 30
0.0
 10
2860.359273346304
 20
-1326.051606024405
 30
0.0
 10
2860.359273346304
 20
-1325.834953181921
 30
0.0
 10
2860.23089679054
 20
-1325.686804965724
 30
0.0
 10
2860.028446126677
 20
-1325.686804965724
 30
0.0
 10
2859.860526250047
 20
-1325.686804965724
 30
0.0
 10
2859.746351872903
 20
-1325.789283431064
 30
0.0
 10
2859.658075586184
 20
-1325.914596771831
 30
0.0
 10
2859.658075586184
 20
-1325.914596771831
 30
0.0
 10
2859.658075586184
 20
-1326.880901866199
 30
0.0
 10
2859.658075586184
 20
-1326.880901866199
 30
0.0
 10
2859.658075586184
 20
-1326.880901866199
 30
0.0
 10
2859.378766073317
 20
-1326.880901866199
 30
0.0
 10
2859.378766073317
 20
-1326.880901866199
 30
0.0
 10
2859.378766073317
 20
-1326.880901866199
 30
0.0
 10
2859.378766073317
 20
-1324.714930389545
 30
0.0
 10
2859.378766073317
 20
-1324.714930389545
 30
0.0
 10
2859.378766073317
 20
-1324.714930389545
 30
0.0
 10
2859.658075586184
 20
-1324.714930389545
 30
0.0
 10
2859.658075586184
 20
-1324.714930389545
 30
0.0
 10
2859.658075586184
 20
-1324.714930389545
 30
0.0
 10
2859.658075586184
 20
-1325.606882901723
 30
0.0
 10
2859.658075586184
 20
-1325.606882901723
 30
0.0
  0
SPLINE
  5
A5
330
2
100
AcDbEntity
  8
Layout
370
     0
100
AcDbSpline
210
0.0
220
0.0
230
1.0
 70
    11
 71
     3
 72
    32
 73
    28
 74
     0
 42
0.000000001
 43
0.0000000001
 40
0.0
 40
0.0
 40
0.0
 40
0.0
 40
1.0
 40
1.0
 40
1.0
 40
2.0
 40
2.0
 40
2.0
 40
3.0
 40
3.0
 40
3.0
 40
4.0
 40
4.0
 40
4.0
 40
5.0
 40
5.0
 40
5.0
 40
6.0
 40
6.0
 40
6.0
 40
7.0
 40
7.0
 40
7.0
 40
8.0
 40
8.0
 40
8.0
 40
9.0
 40
9.0
 40
9.0
 40
9.0
 10
2861.733821457486
 20
-1325.701007144345
 30
0.0
 10
2861.733821457486
 20
-1325.701007144345
 30
0.0
 10
2861.708201841151
 20
-1325.701007144345
 30
0.0
 10
2861.708201841151
 20
-1325.701007144345
 30
0.0
 10
2861.531370793622
 20
-1325.701007144345
 30
0.0
 10
2861.417474890569
 20
-1325.800700868778
 30
0.0
 10
2861.320565907041
 20
-1325.940216388167
 30
0.0
 10
2861.320565907041
 20
-1325.940216388167
 30
0.0
 10
2861.320565907041
 20
-1326.880901866199
 30
0.0
 10
2861.320565907041
 20
-1326.880901866199
 30
0.0
 10
2861.320565907041
 20
-1326.880901866199
 30
0.0
 10
2861.041256394173
 20
-1326.880901866199
 30
0.0
 10
2861.041256394173
 20
-1326.880901866199
 30
0.0
 10
2861.041256394173
 20
-1326.880901866199
 30
0.0
 10
2861.041256394173
 20
-1325.450101988718
 30
0.0
 10
2861.041256394173
 20
-1325.450101988718
 30
0.0
 10
2861.041256394173
 20
-1325.450101988718
 30
0.0
 10
2861.294946290707
 20
-1325.450101988718
 30
0.0
 10
2861.294946290707
 20
-1325.450101988718
 30
0.0
 10
2861.294946290707
 20
-1325.450101988718
 30
0.0
 10
2861.309148469327
 20
-1325.643919955773
 30
0.0
 10
2861.309148469327
 20
-1325.643919955773
 30
0.0
 10
2861.380437836519
 20
-1325.530024052719
 30
0.0
 10
2861.523016570905
 20
-1325.421697631477
 30
0.0
 10
2861.733821457486
 20
-1325.421697631477
 30
0.0
 10
2861.733821457486
 20
-1325.421697631477
 30
0.0
 10
2861.733821457486
 20
-1325.701007144345
 30
0.0
 10
2861.733821457486
 20
-1325.701007144345
 30
0.0
  0
SPLINE
  5
A6
330
2
100
AcDbEntity
  8
Layout
370
     0
100
AcDbSpline
210
0.0
220
0.0
230
1.0
 70
     9
 71
     3
 72
    17
 73
    13
 74
     0
 42
0.000000001
 43
0.0000000001
 40
0.0
 40
0.0
 40
0.0
 40
0.0
 40
1.0
 40
1.0
 40
1.0
 40
2.0
 40
2.0
 40
2.0
 40
3.0
 40
3.0
 40
3.0
 40
4.0
 40
4.0
 40
4.0
 40
4.0
 10
2863.327528677965
 20
-1326.168286668364
 30
0.0
 10
2863.327528677965
 20
-1326.598807612426
 30
0.0
 10
2863.01675159286
 20
-1326.90930622344
 30
0.0
 10
2862.592078604702
 20
-1326.90930622344
 30
0.0
 10
2862.167405616543
 20
-1326.90930622344
 30
0.0
 10
2861.859691746435
 20
-1326.598807612426
 30
0.0
 10
2861.859691746435
 20
-1326.168286668364
 30
0.0
 10
2861.859691746435
 20
-1325.738044198394
 30
0.0
 10
2862.167405616543
 20
-1325.421697631477
 30
0.0
 10
2862.592078604702
 20
-1325.421697631477
 30
0.0
 10
2863.01675159286
 20
-1325.421697631477
 30
0.0
 10
2863.327528677965
 20
-1325.738044198394
 30
0.0
 10
2863.327528677965
 20
-1326.168286668364
 30
0.0
  0
SPLINE
  5
A7
330
2
100
AcDbEntity
  8
Layout
370
     0
100
AcDbSpline
210
0.0
220
0.0
230
1.0
 70
     9
 71
     3
 72
    17
 73
    13
 74
     0
 42
0.000000001
 43
0.0000000001
 40
0.0
 40
0.0
 40
0.0
 40
0.0
 40
1.0
 40
1.0
 40
1.0
 40
2.0
 40
2.0
 40
2.0
 40
3.0
 40
3.0
 40
3.0
 40
4.0
 40
4.0
 40
4.0
 40
4.0
 10
2862.141786000208
 20
-1326.168286668364
 30
0.0
 10
2862.141786000208
 20
-1326.453444137135
 30
0.0
 10
2862.330034485451
 20
-1326.661464282809
 30
0.0
 10
2862.592078604702
 20
-1326.661464282809
 30
0.0
 10
2862.854401198043
 20
-1326.661464282809
 30
0.0
 10
2863.045434424192
 20
-1326.453444137135
 30
0.0
 10
2863.045434424192
 20
-1326.168286668364
 30
0.0
 10
2863.045434424192
 20
-1325.880344458689
 30
0.0
 10
2862.854401198043
 20
-1325.669539572107
 30
0.0
 10
2862.592078604702
 20
-1325.669539572107
 30
0.0
 10
2862.330034485451
 20
-1325.669539572107
 30
0.0
 10
2862.141786000208
 20
-1325.880344458689
 30
0.0
 10
2862.141786000208
 20
-1326.168286668364
 30
0.0
  0
SPLINE
  5
A8
330
2
100
AcDbEntity
  8
Layout
370
     0
100
AcDbSpline
210
0.0
220
0.0
230
1.0
 70
     9
 71
     3
 72
    32
 73
    28
 74
     0
 42
0.000000001
 43
0.0000000001
 40
0.0
 40
0.0
 40
0.0
 40
0.0
 40
1.0
 40
1.0
 40
1.0
 40
2.0
 40
2.0
 40
2.0
 40
3.0
 40
3.0
 40
3.0
 40
4.0
 40
4.0
 40
4.0
 40
5.0
 40
5.0
 40
5.0
 40
6.0
 40
6.0
 40
6.0
 40
7.0
 40
7.0
 40
7.0
 40
8.0
 40
8.0
 40
8.0
 40
9.0
 40
9.0
 40
9.0
 40
9.0
 10
2864.869996665776
 20
-1326.154084489744
 30
0.0
 10
2864.869996665776
 20
-1326.154084489744
 30
0.0
 10
2864.869996665776
 20
-1326.265195651892
 30
0.0
 10
2864.869996665776
 20
-1326.265195651892
 30
0.0
 10
2864.869996665776
 20
-1326.265195651892
 30
0.0
 10
2863.821263240592
 20
-1326.265195651892
 30
0.0
 10
2863.821263240592
 20
-1326.265195651892
 30
0.0
 10
2863.8298959374
 20
-1326.527518245233
 30
0.0
 10
2863.983892109499
 20
-1326.669818505528
 30
0.0
 10
2864.254568925558
 20
-1326.669818505528
 30
0.0
 10
2864.442538936711
 20
-1326.669818505528
 30
0.0
 10
2864.570915492476
 20
-1326.587390174711
 30
0.0
 10
2864.642204859668
 20
-1326.487417976187
 30
0.0
 10
2864.642204859668
 20
-1326.487417976187
 30
0.0
 10
2864.836022826723
 20
-1326.650046845095
 30
0.0
 10
2864.836022826723
 20
-1326.650046845095
 30
0.0
 10
2864.69901357415
 20
-1326.818245195815
 30
0.0
 10
2864.513828303903
 20
-1326.90930622344
 30
0.0
 10
2864.254568925558
 20
-1326.90930622344
 30
0.0
 10
2863.812909017874
 20
-1326.90930622344
 30
0.0
 10
2863.539168986818
 20
-1326.598807612426
 30
0.0
 10
2863.539168986818
 20
-1326.168286668364
 30
0.0
 10
2863.539168986818
 20
-1325.738044198394
 30
0.0
 10
2863.821263240592
 20
-1325.421697631477
 30
0.0
 10
2864.223101353322
 20
-1325.421697631477
 30
0.0
 10
2864.650559082386
 20
-1325.421697631477
 30
0.0
 10
2864.869996665776
 20
-1325.752246377014
 30
0.0
 10
2864.869996665776
 20
-1326.154084489744
 30
0.0
  0
SPLINE
  5
A9
330
2
100
AcDbEntity
  8
Layout
370
     0
100
AcDbSpline
210
0.0
220
0.0
230
1.0
 70
     9
 71
     3
 72
    14
 73
    10
 74
     0
 42
0.000000001
 43
0.0000000001
 40
0.0
 40
0.0
 40
0.0
 40
0.0
 40
1.0
 40
1.0
 40
1.0
 40
2.0
 40
2.0
 40
2.0
 40
3.0
 40
3.0
 40
3.0
 40
3.0
 10
2863.821263240592
 20
-1326.037125371694
 30
0.0
 10
2863.821263240592
 20
-1326.037125371694
 30
0.0
 10
2864.593750367904
 20
-1326.037125371694
 30
0.0
 10
2864.593750367904
 20
-1326.037125371694
 30
0.0
 10
2864.585117671096
 20
-1325.812118306492
 30
0.0
 10
2864.453956374426
 20
-1325.660906875299
 30
0.0
 10
2864.223101353322
 20
-1325.660906875299
 30
0.0
 10
2863.992246332217
 20
-1325.660906875299
 30
0.0
 10
2863.835465419212
 20
-1325.809333565587
 30
0.0
 10
2863.821263240592
 20
-1326.037125371694
 30
0.0
  0
POLYLINE
  5
AA
330
2
100
AcDbEntity
  8
Layout
370
     0
100
AcDb2dPolyline
 66
     1
 10
0.0
 20
0.0
 30
0.0
  0
VERTEX
  5
AB
330
AA
100
AcDbEntity
  8
Layout
370
     0
100
AcDbVertex
100
AcDb2dVertex
 10
2865.703191144838
 20
-1326.90930622344
 30
0.0
  0
VERTEX
  5
AC
330
AA
100
AcDbEntity
  8
Layout
370
     0
100
AcDbVertex
100
AcDb2dVertex
 10
2865.691773707124
 20
-1326.90930622344
 30
0.0
  0
VERTEX
  5
AD
330
AA
100
AcDbEntity
  8
Layout
370
     0
100
AcDbVertex
100
AcDb2dVertex
 10
2864.953538892954
 20
-1325.450101988718
 30
0.0
  0
VERTEX
  5
AE
330
AA
100
AcDbEntity
  8
Layout
370
     0
100
AcDbVertex
100
AcDb2dVertex
 10
2865.267100718965
 20
-1325.450101988718
 30
0.0
  0
VERTEX
  5
AF
330
AA
100
AcDbEntity
  8
Layout
370
     0
100
AcDbVertex
100
AcDb2dVertex
 10
2865.697621663026
 20
-1326.322282840464
 30
0.0
  0
VERTEX
  5
B0
330
AA
100
AcDbEntity
  8
Layout
370
     0
100
AcDbVertex
100
AcDb2dVertex
 10
2866.127864132997
 20
-1325.450101988718
 30
0.0
  0
VERTEX
  5
B1
330
AA
100
AcDbEntity
  8
Layout
370
     0
100
AcDbVertex
100
AcDb2dVertex
 10
2866.438362744011
 20
-1325.450101988718
 30
0.0
  0
VERTEX
  5
B2
330
AA
100
AcDbEntity
  8
Layout
370
     0
100
AcDbVertex
100
AcDb2dVertex
 10
2865.703191144838
 20
-1326.90930622344
 30
0.0
  0
SEQEND
  5
B3
330
AA
100
AcDbEntity
  8
Layout
370
     0
  0
HATCH
  5
B4
330
2
100
AcDbEntity
  8
Layout
 62
   250
420
  1842203
100
AcDbHatch
 10
0.0
 20
0.0
 30
0.0
210
0.0
220
0.0
230
1.0
  2
SOLID
 70
     1
 71
     0
 91
        1
 92
        1
 93
        7
 72
     1
 10
2865.703191144838
 20
-1326.90930622344
 11
2865.691773707124
 21
-1326.90930622344
 72
     1
 10
2865.691773707124
 20
-1326.90930622344
 11
2864.953538892954
 21
-1325.450101988718
 72
     1
 10
2864.953538892954
 20
-1325.450101988718
 11
2865.267100718965
 21
-1325.450101988718
 72
     1
 10
2865.267100718965
 20
-1325.450101988718
 11
2865.697621663026
 21
-1326.322282840464
 72
     1
 10
2865.697621663026
 20
-1326.322282840464
 11
2866.127864132997
 21
-1325.450101988718
 72
     1
 10
2866.127864132997
 20
-1325.450101988718
 11
2866.438362744011
 21
-1325.450101988718
 72
     1
 10
2866.438362744011
 20
-1325.450101988718
 11
2865.703191144838
 21
-1326.90930622344
 97
        0
 75
     2
 76
     1
 98
        0
450
        0
451
        0
460
0.0
461
0.0
452
        1
462
0.0
453
        0
470

  0
SPLINE
  5
B5
330
2
100
AcDbEntity
  8
Layout
370
     0
100
AcDbSpline
210
0.0
220
0.0
230
1.0
 70
     9
 71
     3
 72
    32
 73
    28
 74
     0
 42
0.000000001
 43
0.0000000001
 40
0.0
 40
0.0
 40
0.0
 40
0.0
 40
1.0
 40
1.0
 40
1.0
 40
2.0
 40
2.0
 40
2.0
 40
3.0
 40
3.0
 40
3.0
 40
4.0
 40
4.0
 40
4.0
 40
5.0
 40
5.0
 40
5.0
 40
6.0
 40
6.0
 40
6.0
 40
7.0
 40
7.0
 40
7.0
 40
8.0
 40
8.0
 40
8.0
 40
9.0
 40
9.0
 40
9.0
 40
9.0
 10
2867.827113033812
 20
-1326.154084489744
 30
0.0
 10
2867.827113033812
 20
-1326.154084489744
 30
0.0
 10
2867.827113033812
 20
-1326.265195651892
 30
0.0
 10
2867.827113033812
 20
-1326.265195651892
 30
0.0
 10
2867.827113033812
 20
-1326.265195651892
 30
0.0
 10
2866.778379608629
 20
-1326.265195651892
 30
0.0
 10
2866.778379608629
 20
-1326.265195651892
 30
0.0
 10
2866.787012305437
 20
-1326.527518245233
 30
0.0
 10
2866.941008477537
 20
-1326.669818505528
 30
0.0
 10
2867.211685293596
 20
-1326.669818505528
 30
0.0
 10
2867.399655304748
 20
-1326.669818505528
 30
0.0
 10
2867.528031860512
 20
-1326.587390174711
 30
0.0
 10
2867.599321227705
 20
-1326.487417976187
 30
0.0
 10
2867.599321227705
 20
-1326.487417976187
 30
0.0
 10
2867.793139194759
 20
-1326.650046845095
 30
0.0
 10
2867.793139194759
 20
-1326.650046845095
 30
0.0
 10
2867.656129942187
 20
-1326.818245195815
 30
0.0
 10
2867.470944671941
 20
-1326.90930622344
 30
0.0
 10
2867.211685293596
 20
-1326.90930622344
 30
0.0
 10
2866.770025385911
 20
-1326.90930622344
 30
0.0
 10
2866.496285354855
 20
-1326.598807612426
 30
0.0
 10
2866.496285354855
 20
-1326.168286668364
 30
0.0
 10
2866.496285354855
 20
-1325.738044198394
 30
0.0
 10
2866.778379608629
 20
-1325.421697631477
 30
0.0
 10
2867.180217721358
 20
-1325.421697631477
 30
0.0
 10
2867.607675450423
 20
-1325.421697631477
 30
0.0
 10
2867.827113033812
 20
-1325.752246377014
 30
0.0
 10
2867.827113033812
 20
-1326.154084489744
 30
0.0
  0
SPLINE
  5
B6
330
2
100
AcDbEntity
  8
Layout
370
     0
100
AcDbSpline
210
0.0
220
0.0
230
1.0
 70
     9
 71
     3
 72
    14
 73
    10
 74
     0
 42
0.000000001
 43
0.0000000001
 40
0.0
 40
0.0
 40
0.0
 40
0.0
 40
1.0
 40
1.0
 40
1.0
 40
2.0
 40
2.0
 40
2.0
 40
3.0
 40
3.0
 40
3.0
 40
3.0
 10
2866.778379608629
 20
-1326.037125371694
 30
0.0
 10
2866.778379608629
 20
-1326.037125371694
 30
0.0
 10
2867.550866735941
 20
-1326.037125371694
 30
0.0
 10
2867.550866735941
 20
-1326.037125371694
 30
0.0
 10
2867.542234039133
 20
-1325.812118306492
 30
0.0
 10
2867.411072742462
 20
-1325.660906875299
 30
0.0
 10
2867.180217721358
 20
-1325.660906875299
 30
0.0
 10
2866.949362700255
 20
-1325.660906875299
 30
0.0
 10
2866.792581787249
 20
-1325.809333565587
 30
0.0
 10
2866.778379608629
 20
-1326.037125371694
 30
0.0
  0
SPLINE
  5
B7
330
2
100
AcDbEntity
  8
Layout
370
     0
100
AcDbSpline
210
0.0
220
0.0
230
1.0
 70
     9
 71
     3
 72
    41
 73
    37
 74
     0
 42
0.000000001
 43
0.0000000001
 40
0.0
 40
0.0
 40
0.0
 40
0.0
 40
1.0
 40
1.0
 40
1.0
 40
2.0
 40
2.0
 40
2.0
 40
3.0
 40
3.0
 40
3.0
 40
4.0
 40
4.0
 40
4.0
 40
5.0
 40
5.0
 40
5.0
 40
6.0
 40
6.0
 40
6.0
 40
7.0
 40
7.0
 40
7.0
 40
8.0
 40
8.0
 40
8.0
 40
9.0
 40
9.0
 40
9.0
 40
10.0
 40
10.0
 40
10.0
 40
11.0
 40
11.0
 40
11.0
 40
12.0
 40
12.0
 40
12.0
 40
12.0
 10
2869.40132706795
 20
-1326.034340630788
 30
0.0
 10
2869.40132706795
 20
-1326.034340630788
 30
0.0
 10
2869.40132706795
 20
-1326.880901866199
 30
0.0
 10
2869.40132706795
 20
-1326.880901866199
 30
0.0
 10
2869.40132706795
 20
-1326.880901866199
 30
0.0
 10
2869.122017555083
 20
-1326.880901866199
 30
0.0
 10
2869.122017555083
 20
-1326.880901866199
 30
0.0
 10
2869.122017555083
 20
-1326.880901866199
 30
0.0
 10
2869.122017555083
 20
-1326.051606024405
 30
0.0
 10
2869.122017555083
 20
-1326.051606024405
 30
0.0
 10
2869.122017555083
 20
-1325.834953181921
 30
0.0
 10
2868.993640999318
 20
-1325.686804965724
 30
0.0
 10
2868.791190335455
 20
-1325.686804965724
 30
0.0
 10
2868.623270458826
 20
-1325.686804965724
 30
0.0
 10
2868.509096081682
 20
-1325.789283431064
 30
0.0
 10
2868.420819794963
 20
-1325.914596771831
 30
0.0
 10
2868.420819794963
 20
-1325.914596771831
 30
0.0
 10
2868.420819794963
 20
-1326.880901866199
 30
0.0
 10
2868.420819794963
 20
-1326.880901866199
 30
0.0
 10
2868.420819794963
 20
-1326.880901866199
 30
0.0
 10
2868.141510282095
 20
-1326.880901866199
 30
0.0
 10
2868.141510282095
 20
-1326.880901866199
 30
0.0
 10
2868.141510282095
 20
-1326.880901866199
 30
0.0
 10
2868.141510282095
 20
-1325.450101988718
 30
0.0
 10
2868.141510282095
 20
-1325.450101988718
 30
0.0
 10
2868.141510282095
 20
-1325.450101988718
 30
0.0
 10
2868.395200178628
 20
-1325.450101988718
 30
0.0
 10
2868.395200178628
 20
-1325.450101988718
 30
0.0
 10
2868.395200178628
 20
-1325.450101988718
 30
0.0
 10
2868.406617616342
 20
-1325.62386982125
 30
0.0
 10
2868.406617616342
 20
-1325.62386982125
 30
0.0
 10
2868.489324421249
 20
-1325.518606615004
 30
0.0
 10
2868.640257378352
 20
-1325.421697631477
 30
0.0
 10
2868.859694961741
 20
-1325.421697631477
 30
0.0
 10
2869.204445885899
 20
-1325.421697631477
 30
0.0
 10
2869.40132706795
 20
-1325.666754831201
 30
0.0
 10
2869.40132706795
 20
-1326.034340630788
 30
0.0
  0
POLYLINE
  5
B8
330
2
100
AcDbEntity
  8
Layout
370
     0
100
AcDb2dPolyline
 66
     1
 10
0.0
 20
0.0
 30
0.0
  0
VERTEX
  5
B9
330
B8
100
AcDbEntity
  8
Layout
370
     0
100
AcDbVertex
100
AcDb2dVertex
 10
2871.035691505657
 20
-1326.90930622344
 30
0.0
  0
VERTEX
  5
BA
330
B8
100
AcDbEntity
  8
Layout
370
     0
100
AcDbVertex
100
AcDb2dVertex
 10
2871.024274067943
 20
-1326.90930622344
 30
0.0
  0
VERTEX
  5
BB
330
B8
100
AcDbEntity
  8
Layout
370
     0
100
AcDbVertex
100
AcDb2dVertex
 10
2870.286039253774
 20
-1325.450101988718
 30
0.0
  0
VERTEX
  5
BC
330
B8
100
AcDbEntity
  8
Layout
370
     0
100
AcDbVertex
100
AcDb2dVertex
 10
2870.599601079784
 20
-1325.450101988718
 30
0.0
  0
VERTEX
  5
BD
330
B8
100
AcDbEntity
  8
Layout
370
     0
100
AcDbVertex
100
AcDb2dVertex
 10
2871.030122023845
 20
-1326.322282840464
 30
0.0
  0
VERTEX
  5
BE
330
B8
100
AcDbEntity
  8
Layout
370
     0
100
AcDbVertex
100
AcDb2dVertex
 10
2871.460364493816
 20
-1325.450101988718
 30
0.0
  0
VERTEX
  5
BF
330
B8
100
AcDbEntity
  8
Layout
370
     0
100
AcDbVertex
100
AcDb2dVertex
 10
2871.77086310483
 20
-1325.450101988718
 30
0.0
  0
VERTEX
  5
C0
330
B8
100
AcDbEntity
  8
Layout
370
     0
100
AcDbVertex
100
AcDb2dVertex
 10
2871.035691505657
 20
-1326.90930622344
 30
0.0
  0
SEQEND
  5
C1
330
B8
100
AcDbEntity
  8
Layout
370
     0
  0
HATCH
  5
C2
330
2
100
AcDbEntity
  8
Layout
 62
   250
420
  1842203
100
AcDbHatch
 10
0.0
 20
0.0
 30
0.0
210
0.0
220
0.0
230
1.0
  2
SOLID
 70
     1
 71
     0
 91
        1
 92
        1
 93
        7
 72
     1
 10
2871.035691505657
 20
-1326.90930622344
 11
2871.024274067943
 21
-1326.90930622344
 72
     1
 10
2871.024274067943
 20
-1326.90930622344
 11
2870.286039253774
 21
-1325.450101988718
 72
     1
 10
2870.286039253774
 20
-1325.450101988718
 11
2870.599601079785
 21
-1325.450101988718
 72
     1
 10
2870.599601079784
 20
-1325.450101988718
 11
2871.030122023845
 21
-1326.322282840464
 72
     1
 10
2871.030122023845
 20
-1326.322282840464
 11
2871.460364493816
 21
-1325.450101988718
 72
     1
 10
2871.460364493816
 20
-1325.450101988718
 11
2871.77086310483
 21
-1325.450101988718
 72
     1
 10
2871.77086310483
 20
-1325.450101988718
 11
2871.035691505657
 21
-1326.90930622344
 97
        0
 75
     2
 76
     1
 98
        0
450
        0
451
        0
460
0.0
461
0.0
452
        1
462
0.0
453
        0
470

  0
SPLINE
  5
C3
330
2
100
AcDbEntity
  8
Layout
370
     0
100
AcDbSpline
210
0.0
220
0.0
230
1.0
 70
     9
 71
     3
 72
    17
 73
    13
 74
     0
 42
0.000000001
 43
0.0000000001
 40
0.0
 40
0.0
 40
0.0
 40
0.0
 40
1.0
 40
1.0
 40
1.0
 40
2.0
 40
2.0
 40
2.0
 40
3.0
 40
3.0
 40
3.0
 40
4.0
 40
4.0
 40
4.0
 40
4.0
 10
2873.296622647205
 20
-1326.168286668364
 30
0.0
 10
2873.296622647205
 20
-1326.598807612426
 30
0.0
 10
2872.9858455621
 20
-1326.90930622344
 30
0.0
 10
2872.561172573941
 20
-1326.90930622344
 30
0.0
 10
2872.136499585782
 20
-1326.90930622344
 30
0.0
 10
2871.828785715674
 20
-1326.598807612426
 30
0.0
 10
2871.828785715674
 20
-1326.168286668364
 30
0.0
 10
2871.828785715674
 20
-1325.738044198394
 30
0.0
 10
2872.136499585782
 20
-1325.421697631477
 30
0.0
 10
2872.561172573941
 20
-1325.421697631477
 30
0.0
 10
2872.9858455621
 20
-1325.421697631477
 30
0.0
 10
2873.296622647205
 20
-1325.738044198394
 30
0.0
 10
2873.296622647205
 20
-1326.168286668364
 30
0.0
  0
SPLINE
  5
C4
330
2
100
AcDbEntity
  8
Layout
370
     0
100
AcDbSpline
210
0.0
220
0.0
230
1.0
 70
     9
 71
     3
 72
    17
 73
    13
 74
     0
 42
0.000000001
 43
0.0000000001
 40
0.0
 40
0.0
 40
0.0
 40
0.0
 40
1.0
 40
1.0
 40
1.0
 40
2.0
 40
2.0
 40
2.0
 40
3.0
 40
3.0
 40
3.0
 40
4.0
 40
4.0
 40
4.0
 40
4.0
 10
2872.110879969448
 20
-1326.168286668364
 30
0.0
 10
2872.110879969448
 20
-1326.453444137135
 30
0.0
 10
2872.29912845469
 20
-1326.661464282809
 30
0.0
 10
2872.561172573941
 20
-1326.661464282809
 30
0.0
 10
2872.823495167282
 20
-1326.661464282809
 30
0.0
 10
2873.014528393431
 20
-1326.453444137135
 30
0.0
 10
2873.014528393431
 20
-1326.168286668364
 30
0.0
 10
2873.014528393431
 20
-1325.880344458689
 30
0.0
 10
2872.823495167282
 20
-1325.669539572107
 30
0.0
 10
2872.561172573941
 20
-1325.669539572107
 30
0.0
 10
2872.29912845469
 20
-1325.669539572107
 30
0.0
 10
2872.110879969448
 20
-1325.880344458689
 30
0.0
 10
2872.110879969448
 20
-1326.168286668364
 30
0.0
  0
SPLINE
  5
C5
330
2
100
AcDbEntity
  8
Layout
370
     0
100
AcDbSpline
210
0.0
220
0.0
230
1.0
 70
     9
 71
     3
 72
    17
 73
    13
 74
     0
 42
0.000000001
 43
0.0000000001
 40
0.0
 40
0.0
 40
0.0
 40
0.0
 40
1.0
 40
1.0
 40
1.0
 40
2.0
 40
2.0
 40
2.0
 40
3.0
 40
3.0
 40
3.0
 40
4.0
 40
4.0
 40
4.0
 40
4.0
 10
2874.976099887588
 20
-1326.168286668364
 30
0.0
 10
2874.976099887588
 20
-1326.598807612426
 30
0.0
 10
2874.665322802483
 20
-1326.90930622344
 30
0.0
 10
2874.240649814325
 20
-1326.90930622344
 30
0.0
 10
2873.815976826166
 20
-1326.90930622344
 30
0.0
 10
2873.508262956058
 20
-1326.598807612426
 30
0.0
 10
2873.508262956058
 20
-1326.168286668364
 30
0.0
 10
2873.508262956058
 20
-1325.738044198394
 30
0.0
 10
2873.815976826166
 20
-1325.421697631477
 30
0.0
 10
2874.240649814325
 20
-1325.421697631477
 30
0.0
 10
2874.665322802483
 20
-1325.421697631477
 30
0.0
 10
2874.976099887588
 20
-1325.738044198394
 30
0.0
 10
2874.976099887588
 20
-1326.168286668364
 30
0.0
  0
SPLINE
  5
C6
330
2
100
AcDbEntity
  8
Layout
370
     0
100
AcDbSpline
210
0.0
220
0.0
230
1.0
 70
     9
 71
     3
 72
    17
 73
    13
 74
     0
 42
0.000000001
 43
0.0000000001
 40
0.0
 40
0.0
 40
0.0
 40
0.0
 40
1.0
 40
1.0
 40
1.0
 40
2.0
 40
2.0
 40
2.0
 40
3.0
 40
3.0
 40
3.0
 40
4.0
 40
4.0
 40
4.0
 40
4.0
 10
2873.790357209831
 20
-1326.168286668364
 30
0.0
 10
2873.790357209831
 20
-1326.453444137135
 30
0.0
 10
2873.978605695074
 20
-1326.661464282809
 30
0.0
 10
2874.240649814325
 20
-1326.661464282809
 30
0.0
 10
2874.502972407666
 20
-1326.661464282809
 30
0.0
 10
2874.694005633815
 20
-1326.453444137135
 30
0.0
 10
2874.694005633815
 20
-1326.168286668364
 30
0.0
 10
2874.694005633815
 20
-1325.880344458689
 30
0.0
 10
2874.502972407666
 20
-1325.669539572107
 30
0.0
 10
2874.240649814325
 20
-1325.669539572107
 30
0.0
 10
2873.978605695074
 20
-1325.669539572107
 30
0.0
 10
2873.790357209831
 20
-1325.880344458689
 30
0.0
 10
2873.790357209831
 20
-1326.168286668364
 30
0.0
  0
SPLINE
  5
C7
330
2
100
AcDbEntity
  8
Layout
370
     0
100
AcDbSpline
210
0.0
220
0.0
230
1.0
 70
    11
 71
     3
 72
    32
 73
    28
 74
     0
 42
0.000000001
 43
0.0000000001
 40
0.0
 40
0.0
 40
0.0
 40
0.0
 40
1.0
 40
1.0
 40
1.0
 40
2.0
 40
2.0
 40
2.0
 40
3.0
 40
3.0
 40
3.0
 40
4.0
 40
4.0
 40
4.0
 40
5.0
 40
5.0
 40
5.0
 40
6.0
 40
6.0
 40
6.0
 40
7.0
 40
7.0
 40
7.0
 40
8.0
 40
8.0
 40
8.0
 40
9.0
 40
9.0
 40
9.0
 40
9.0
 10
2875.974429502374
 20
-1325.701007144345
 30
0.0
 10
2875.974429502374
 20
-1325.701007144345
 30
0.0
 10
2875.948809886039
 20
-1325.701007144345
 30
0.0
 10
2875.948809886039
 20
-1325.701007144345
 30
0.0
 10
2875.77197883851
 20
-1325.701007144345
 30
0.0
 10
2875.658082935457
 20
-1325.800700868778
 30
0.0
 10
2875.561173951929
 20
-1325.940216388167
 30
0.0
 10
2875.561173951929
 20
-1325.940216388167
 30
0.0
 10
2875.561173951929
 20
-1326.880901866199
 30
0.0
 10
2875.561173951929
 20
-1326.880901866199
 30
0.0
 10
2875.561173951929
 20
-1326.880901866199
 30
0.0
 10
2875.281864439062
 20
-1326.880901866199
 30
0.0
 10
2875.281864439062
 20
-1326.880901866199
 30
0.0
 10
2875.281864439062
 20
-1326.880901866199
 30
0.0
 10
2875.281864439062
 20
-1325.450101988718
 30
0.0
 10
2875.281864439062
 20
-1325.450101988718
 30
0.0
 10
2875.281864439062
 20
-1325.450101988718
 30
0.0
 10
2875.535554335595
 20
-1325.450101988718
 30
0.0
 10
2875.535554335595
 20
-1325.450101988718
 30
0.0
 10
2875.535554335595
 20
-1325.450101988718
 30
0.0
 10
2875.549756514215
 20
-1325.643919955773
 30
0.0
 10
2875.549756514215
 20
-1325.643919955773
 30
0.0
 10
2875.621045881408
 20
-1325.530024052719
 30
0.0
 10
2875.763624615793
 20
-1325.421697631477
 30
0.0
 10
2875.974429502374
 20
-1325.421697631477
 30
0.0
 10
2875.974429502374
 20
-1325.421697631477
 30
0.0
 10
2875.974429502374
 20
-1325.701007144345
 30
0.0
 10
2875.974429502374
 20
-1325.701007144345
 30
0.0
  0
SPLINE
  5
C8
330
2
100
AcDbEntity
  8
Layout
370
     0
100
AcDbSpline
210
0.0
220
0.0
230
1.0
 70
    11
 71
     3
 72
    32
 73
    28
 74
     0
 42
0.000000001
 43
0.0000000001
 40
0.0
 40
0.0
 40
0.0
 40
0.0
 40
1.0
 40
1.0
 40
1.0
 40
2.0
 40
2.0
 40
2.0
 40
3.0
 40
3.0
 40
3.0
 40
4.0
 40
4.0
 40
4.0
 40
5.0
 40
5.0
 40
5.0
 40
6.0
 40
6.0
 40
6.0
 40
7.0
 40
7.0
 40
7.0
 40
8.0
 40
8.0
 40
8.0
 40
9.0
 40
9.0
 40
9.0
 40
9.0
 10
2878.158501794917
 20
-1326.880901866199
 30
0.0
 10
2878.158501794917
 20
-1326.880901866199
 30
0.0
 10
2877.904811898384
 20
-1326.880901866199
 30
0.0
 10
2877.904811898384
 20
-1326.880901866199
 30
0.0
 10
2877.904811898384
 20
-1326.880901866199
 30
0.0
 10
2877.89339446067
 20
-1326.706855559577
 30
0.0
 10
2877.89339446067
 20
-1326.706855559577
 30
0.0
 10
2877.810687655762
 20
-1326.815181980819
 30
0.0
 10
2877.65975469866
 20
-1326.90930622344
 30
0.0
 10
2877.434469159368
 20
-1326.90930622344
 30
0.0
 10
2877.041263743446
 20
-1326.90930622344
 30
0.0
 10
2876.773371668294
 20
-1326.595744397429
 30
0.0
 10
2876.773371668294
 20
-1326.165501927458
 30
0.0
 10
2876.773371668294
 20
-1325.735259457488
 30
0.0
 10
2877.041263743446
 20
-1325.421697631477
 30
0.0
 10
2877.434469159368
 20
-1325.421697631477
 30
0.0
 10
2877.648337260945
 20
-1325.421697631477
 30
0.0
 10
2877.793700736236
 20
-1325.504404436384
 30
0.0
 10
2877.879192282049
 20
-1325.604098160817
 30
0.0
 10
2877.879192282049
 20
-1325.604098160817
 30
0.0
 10
2877.879192282049
 20
-1324.714930389545
 30
0.0
 10
2877.879192282049
 20
-1324.714930389545
 30
0.0
 10
2877.879192282049
 20
-1324.714930389545
 30
0.0
 10
2878.158501794917
 20
-1324.714930389545
 30
0.0
 10
2878.158501794917
 20
-1324.714930389545
 30
0.0
 10
2878.158501794917
 20
-1324.714930389545
 30
0.0
 10
2878.158501794917
 20
-1326.880901866199
 30
0.0
 10
2878.158501794917
 20
-1326.880901866199
 30
0.0
  0
SPLINE
  5
C9
330
2
100
AcDbEntity
  8
Layout
370
     0
100
AcDbSpline
210
0.0
220
0.0
230
1.0
 70
    11
 71
     3
 72
    20
 73
    16
 74
     0
 42
0.000000001
 43
0.0000000001
 40
0.0
 40
0.0
 40
0.0
 40
0.0
 40
1.0
 40
1.0
 40
1.0
 40
2.0
 40
2.0
 40
2.0
 40
3.0
 40
3.0
 40
3.0
 40
4.0
 40
4.0
 40
4.0
 40
5.0
 40
5.0
 40
5.0
 40
5.0
 10
2877.055465922067
 20
-1326.165501927458
 30
0.0
 10
2877.055465922067
 20
-1326.461798359852
 30
0.0
 10
2877.235081710501
 20
-1326.661464282809
 30
0.0
 10
2877.485986866128
 20
-1326.661464282809
 30
0.0
 10
2877.676741618186
 20
-1326.661464282809
 30
0.0
 10
2877.793700736236
 20
-1326.55870734338
 30
0.0
 10
2877.879192282049
 20
-1326.419191823991
 30
0.0
 10
2877.879192282049
 20
-1326.419191823991
 30
0.0
 10
2877.879192282049
 20
-1325.911812030926
 30
0.0
 10
2877.879192282049
 20
-1325.911812030926
 30
0.0
 10
2877.793700736236
 20
-1325.772296511537
 30
0.0
 10
2877.676741618186
 20
-1325.669539572107
 30
0.0
 10
2877.485986866128
 20
-1325.669539572107
 30
0.0
 10
2877.235081710501
 20
-1325.669539572107
 30
0.0
 10
2877.055465922067
 20
-1325.869205495065
 30
0.0
 10
2877.055465922067
 20
-1326.165501927458
 30
0.0
  0
SPLINE
  5
CA
330
2
100
AcDbEntity
  8
Layout
370
     0
100
AcDbSpline
210
0.0
220
0.0
230
1.0
 70
     9
 71
     3
 72
    32
 73
    28
 74
     0
 42
0.000000001
 43
0.0000000001
 40
0.0
 40
0.0
 40
0.0
 40
0.0
 40
1.0
 40
1.0
 40
1.0
 40
2.0
 40
2.0
 40
2.0
 40
3.0
 40
3.0
 40
3.0
 40
4.0
 40
4.0
 40
4.0
 40
5.0
 40
5.0
 40
5.0
 40
6.0
 40
6.0
 40
6.0
 40
7.0
 40
7.0
 40
7.0
 40
8.0
 40
8.0
 40
8.0
 40
9.0
 40
9.0
 40
9.0
 40
9.0
 10
2879.584289138767
 20
-1325.62386982125
 30
0.0
 10
2879.584289138767
 20
-1325.62386982125
 30
0.0
 10
2879.595706576481
 20
-1325.450101988718
 30
0.0
 10
2879.595706576481
 20
-1325.450101988718
 30
0.0
 10
2879.595706576481
 20
-1325.450101988718
 30
0.0
 10
2879.849396473014
 20
-1325.450101988718
 30
0.0
 10
2879.849396473014
 20
-1325.450101988718
 30
0.0
 10
2879.849396473014
 20
-1325.450101988718
 30
0.0
 10
2879.849396473014
 20
-1326.880901866199
 30
0.0
 10
2879.849396473014
 20
-1326.880901866199
 30
0.0
 10
2879.849396473014
 20
-1326.880901866199
 30
0.0
 10
2879.595706576481
 20
-1326.880901866199
 30
0.0
 10
2879.595706576481
 20
-1326.880901866199
 30
0.0
 10
2879.595706576481
 20
-1326.880901866199
 30
0.0
 10
2879.584289138767
 20
-1326.706855559577
 30
0.0
 10
2879.584289138767
 20
-1326.706855559577
 30
0.0
 10
2879.50158233386
 20
-1326.815181980819
 30
0.0
 10
2879.350649376757
 20
-1326.90930622344
 30
0.0
 10
2879.125363837465
 20
-1326.90930622344
 30
0.0
 10
2878.732158421544
 20
-1326.90930622344
 30
0.0
 10
2878.464266346391
 20
-1326.595744397429
 30
0.0
 10
2878.464266346391
 20
-1326.165501927458
 30
0.0
 10
2878.464266346391
 20
-1325.735259457488
 30
0.0
 10
2878.732158421544
 20
-1325.421697631477
 30
0.0
 10
2879.125363837465
 20
-1325.421697631477
 30
0.0
 10
2879.350649376757
 20
-1325.421697631477
 30
0.0
 10
2879.50158233386
 20
-1325.515543400008
 30
0.0
 10
2879.584289138767
 20
-1325.62386982125
 30
0.0
  0
SPLINE
  5
CB
330
2
100
AcDbEntity
  8
Layout
370
     0
100
AcDbSpline
210
0.0
220
0.0
230
1.0
 70
    11
 71
     3
 72
    20
 73
    16
 74
     0
 42
0.000000001
 43
0.0000000001
 40
0.0
 40
0.0
 40
0.0
 40
0.0
 40
1.0
 40
1.0
 40
1.0
 40
2.0
 40
2.0
 40
2.0
 40
3.0
 40
3.0
 40
3.0
 40
4.0
 40
4.0
 40
4.0
 40
5.0
 40
5.0
 40
5.0
 40
5.0
 10
2878.746360600165
 20
-1326.165501927458
 30
0.0
 10
2878.746360600165
 20
-1326.461798359852
 30
0.0
 10
2878.925976388599
 20
-1326.661464282809
 30
0.0
 10
2879.176881544226
 20
-1326.661464282809
 30
0.0
 10
2879.367636296284
 20
-1326.661464282809
 30
0.0
 10
2879.484595414334
 20
-1326.55870734338
 30
0.0
 10
2879.570086960147
 20
-1326.419191823991
 30
0.0
 10
2879.570086960147
 20
-1326.419191823991
 30
0.0
 10
2879.570086960147
 20
-1325.911812030926
 30
0.0
 10
2879.570086960147
 20
-1325.911812030926
 30
0.0
 10
2879.484595414334
 20
-1325.772296511537
 30
0.0
 10
2879.367636296284
 20
-1325.669539572107
 30
0.0
 10
2879.176881544226
 20
-1325.669539572107
 30
0.0
 10
2878.925976388599
 20
-1325.669539572107
 30
0.0
 10
2878.746360600165
 20
-1325.869205495065
 30
0.0
 10
2878.746360600165
 20
-1326.165501927458
 30
0.0
  0
POLYLINE
  5
CC
330
2
100
AcDbEntity
  8
Layout
370
     0
100
AcDb2dPolyline
 66
     1
 10
0.0
 20
0.0
 30
0.0
  0
VERTEX
  5
CD
330
CC
100
AcDbEntity
  8
Layout
370
     0
100
AcDbVertex
100
AcDb2dVertex
 10
2880.568416574933
 20
-1326.367952591321
 30
0.0
  0
VERTEX
  5
CE
330
CC
100
AcDbEntity
  8
Layout
370
     0
100
AcDbVertex
100
AcDb2dVertex
 10
2881.186907530146
 20
-1325.450101988718
 30
0.0
  0
VERTEX
  5
CF
330
CC
100
AcDbEntity
  8
Layout
370
     0
100
AcDbVertex
100
AcDb2dVertex
 10
2881.520241016589
 20
-1325.450101988718
 30
0.0
  0
VERTEX
  5
D0
330
CC
100
AcDbEntity
  8
Layout
370
     0
100
AcDbVertex
100
AcDb2dVertex
 10
2881.08136584981
 20
-1326.07722564074
 30
0.0
  0
VERTEX
  5
D1
330
CC
100
AcDbEntity
  8
Layout
370
     0
100
AcDbVertex
100
AcDb2dVertex
 10
2881.591530383781
 20
-1326.880901866199
 30
0.0
  0
VERTEX
  5
D2
330
CC
100
AcDbEntity
  8
Layout
370
     0
100
AcDbVertex
100
AcDb2dVertex
 10
2881.263766379151
 20
-1326.880901866199
 30
0.0
  0
VERTEX
  5
D3
330
CC
100
AcDbEntity
  8
Layout
370
     0
100
AcDbVertex
100
AcDb2dVertex
 10
2880.904813276373
 20
-1326.308080661843
 30
0.0
  0
VERTEX
  5
D4
330
CC
100
AcDbEntity
  8
Layout
370
     0
100
AcDbVertex
100
AcDb2dVertex
 10
2880.514392601357
 20
-1326.880901866199
 30
0.0
  0
VERTEX
  5
D5
330
CC
100
AcDbEntity
  8
Layout
370
     0
100
AcDbVertex
100
AcDb2dVertex
 10
2880.289107062065
 20
-1326.880901866199
 30
0.0
  0
VERTEX
  5
D6
330
CC
100
AcDbEntity
  8
Layout
370
     0
100
AcDbVertex
100
AcDb2dVertex
 10
2880.289107062065
 20
-1324.714930389545
 30
0.0
  0
VERTEX
  5
D7
330
CC
100
AcDbEntity
  8
Layout
370
     0
100
AcDbVertex
100
AcDb2dVertex
 10
2880.568416574933
 20
-1324.714930389545
 30
0.0
  0
VERTEX
  5
D8
330
CC
100
AcDbEntity
  8
Layout
370
     0
100
AcDbVertex
100
AcDb2dVertex
 10
2880.568416574933
 20
-1326.367952591321
 30
0.0
  0
SEQEND
  5
D9
330
CC
100
AcDbEntity
  8
Layout
370
     0
  0
HATCH
  5
DA
330
2
100
AcDbEntity
  8
Layout
 62
   250
420
  1842203
100
AcDbHatch
 10
0.0
 20
0.0
 30
0.0
210
0.0
220
0.0
230
1.0
  2
SOLID
 70
     1
 71
     0
 91
        1
 92
        1
 93
       11
 72
     1
 10
2880.568416574933
 20
-1326.367952591321
 11
2881.186907530146
 21
-1325.450101988718
 72
     1
 10
2881.186907530146
 20
-1325.450101988718
 11
2881.520241016589
 21
-1325.450101988718
 72
     1
 10
2881.520241016589
 20
-1325.450101988718
 11
2881.08136584981
 21
-1326.07722564074
 72
     1
 10
2881.08136584981
 20
-1326.07722564074
 11
2881.591530383781
 21
-1326.880901866199
 72
     1
 10
2881.591530383781
 20
-1326.880901866199
 11
2881.26376637915
 21
-1326.880901866199
 72
     1
 10
2881.263766379151
 20
-1326.880901866199
 11
2880.904813276373
 21
-1326.308080661843
 72
     1
 10
2880.904813276373
 20
-1326.308080661843
 11
2880.514392601357
 21
-1326.880901866199
 72
     1
 10
2880.514392601357
 20
-1326.880901866199
 11
2880.289107062065
 21
-1326.880901866199
 72
     1
 10
2880.289107062065
 20
-1326.880901866199
 11
2880.289107062065
 21
-1324.714930389545
 72
     1
 10
2880.289107062065
 20
-1324.714930389545
 11
2880.568416574933
 21
-1324.714930389545
 72
     1
 10
2880.568416574933
 20
-1324.714930389545
 11
2880.568416574933
 21
-1326.367952591321
 97
        0
 75
     2
 76
     1
 98
        0
450
        0
451
        0
460
0.0
461
0.0
452
        1
462
0.0
453
        0
470

  0
SPLINE
  5
DB
330
2
100
AcDbEntity
  8
Layout
370
     0
100
AcDbSpline
210
0.0
220
0.0
230
1.0
 70
     9
 71
     3
 72
    32
 73
    28
 74
     0
 42
0.000000001
 43
0.0000000001
 40
0.0
 40
0.0
 40
0.0
 40
0.0
 40
1.0
 40
1.0
 40
1.0
 40
2.0
 40
2.0
 40
2.0
 40
3.0
 40
3.0
 40
3.0
 40
4.0
 40
4.0
 40
4.0
 40
5.0
 40
5.0
 40
5.0
 40
6.0
 40
6.0
 40
6.0
 40
7.0
 40
7.0
 40
7.0
 40
8.0
 40
8.0
 40
8.0
 40
9.0
 40
9.0
 40
9.0
 40
9.0
 10
2883.701528568226
 20
-1326.154084489744
 30
0.0
 10
2883.701528568226
 20
-1326.154084489744
 30
0.0
 10
2883.701528568226
 20
-1326.265195651892
 30
0.0
 10
2883.701528568226
 20
-1326.265195651892
 30
0.0
 10
2883.701528568226
 20
-1326.265195651892
 30
0.0
 10
2882.652795143043
 20
-1326.265195651892
 30
0.0
 10
2882.652795143043
 20
-1326.265195651892
 30
0.0
 10
2882.661427839851
 20
-1326.527518245233
 30
0.0
 10
2882.81542401195
 20
-1326.669818505528
 30
0.0
 10
2883.086100828009
 20
-1326.669818505528
 30
0.0
 10
2883.274070839162
 20
-1326.669818505528
 30
0.0
 10
2883.402447394927
 20
-1326.587390174711
 30
0.0
 10
2883.473736762119
 20
-1326.487417976187
 30
0.0
 10
2883.473736762119
 20
-1326.487417976187
 30
0.0
 10
2883.667554729174
 20
-1326.650046845095
 30
0.0
 10
2883.667554729174
 20
-1326.650046845095
 30
0.0
 10
2883.530545476601
 20
-1326.818245195815
 30
0.0
 10
2883.345360206354
 20
-1326.90930622344
 30
0.0
 10
2883.086100828009
 20
-1326.90930622344
 30
0.0
 10
2882.644440920325
 20
-1326.90930622344
 30
0.0
 10
2882.370700889269
 20
-1326.598807612426
 30
0.0
 10
2882.370700889269
 20
-1326.168286668364
 30
0.0
 10
2882.370700889269
 20
-1325.738044198394
 30
0.0
 10
2882.652795143043
 20
-1325.421697631477
 30
0.0
 10
2883.054633255772
 20
-1325.421697631477
 30
0.0
 10
2883.482090984837
 20
-1325.421697631477
 30
0.0
 10
2883.701528568226
 20
-1325.752246377014
 30
0.0
 10
2883.701528568226
 20
-1326.154084489744
 30
0.0
  0
SPLINE
  5
DC
330
2
100
AcDbEntity
  8
Layout
370
     0
100
AcDbSpline
210
0.0
220
0.0
230
1.0
 70
     9
 71
     3
 72
    14
 73
    10
 74
     0
 42
0.000000001
 43
0.0000000001
 40
0.0
 40
0.0
 40
0.0
 40
0.0
 40
1.0
 40
1.0
 40
1.0
 40
2.0
 40
2.0
 40
2.0
 40
3.0
 40
3.0
 40
3.0
 40
3.0
 10
2882.652795143043
 20
-1326.037125371694
 30
0.0
 10
2882.652795143043
 20
-1326.037125371694
 30
0.0
 10
2883.425282270355
 20
-1326.037125371694
 30
0.0
 10
2883.425282270355
 20
-1326.037125371694
 30
0.0
 10
2883.416649573547
 20
-1325.812118306492
 30
0.0
 10
2883.285488276876
 20
-1325.660906875299
 30
0.0
 10
2883.054633255772
 20
-1325.660906875299
 30
0.0
 10
2882.823778234668
 20
-1325.660906875299
 30
0.0
 10
2882.666997321663
 20
-1325.809333565587
 30
0.0
 10
2882.652795143043
 20
-1326.037125371694
 30
0.0
  0
SPLINE
  5
DD
330
2
100
AcDbEntity
  8
Layout
370
     0
100
AcDbSpline
210
0.0
220
0.0
230
1.0
 70
     9
 71
     3
 72
    41
 73
    37
 74
     0
 42
0.000000001
 43
0.0000000001
 40
0.0
 40
0.0
 40
0.0
 40
0.0
 40
1.0
 40
1.0
 40
1.0
 40
2.0
 40
2.0
 40
2.0
 40
3.0
 40
3.0
 40
3.0
 40
4.0
 40
4.0
 40
4.0
 40
5.0
 40
5.0
 40
5.0
 40
6.0
 40
6.0
 40
6.0
 40
7.0
 40
7.0
 40
7.0
 40
8.0
 40
8.0
 40
8.0
 40
9.0
 40
9.0
 40
9.0
 40
10.0
 40
10.0
 40
10.0
 40
11.0
 40
11.0
 40
11.0
 40
12.0
 40
12.0
 40
12.0
 40
12.0
 10
2885.275742602364
 20
-1326.034340630788
 30
0.0
 10
2885.275742602364
 20
-1326.034340630788
 30
0.0
 10
2885.275742602364
 20
-1326.880901866199
 30
0.0
 10
2885.275742602364
 20
-1326.880901866199
 30
0.0
 10
2885.275742602364
 20
-1326.880901866199
 30
0.0
 10
2884.996433089496
 20
-1326.880901866199
 30
0.0
 10
2884.996433089496
 20
-1326.880901866199
 30
0.0
 10
2884.996433089496
 20
-1326.880901866199
 30
0.0
 10
2884.996433089496
 20
-1326.051606024405
 30
0.0
 10
2884.996433089496
 20
-1326.051606024405
 30
0.0
 10
2884.996433089496
 20
-1325.834953181921
 30
0.0
 10
2884.868056533732
 20
-1325.686804965724
 30
0.0
 10
2884.665605869869
 20
-1325.686804965724
 30
0.0
 10
2884.49768599324
 20
-1325.686804965724
 30
0.0
 10
2884.383511616095
 20
-1325.789283431064
 30
0.0
 10
2884.295235329377
 20
-1325.914596771831
 30
0.0
 10
2884.295235329377
 20
-1325.914596771831
 30
0.0
 10
2884.295235329377
 20
-1326.880901866199
 30
0.0
 10
2884.295235329377
 20
-1326.880901866199
 30
0.0
 10
2884.295235329377
 20
-1326.880901866199
 30
0.0
 10
2884.015925816509
 20
-1326.880901866199
 30
0.0
 10
2884.015925816509
 20
-1326.880901866199
 30
0.0
 10
2884.015925816509
 20
-1326.880901866199
 30
0.0
 10
2884.015925816509
 20
-1325.450101988718
 30
0.0
 10
2884.015925816509
 20
-1325.450101988718
 30
0.0
 10
2884.015925816509
 20
-1325.450101988718
 30
0.0
 10
2884.269615713042
 20
-1325.450101988718
 30
0.0
 10
2884.269615713042
 20
-1325.450101988718
 30
0.0
 10
2884.269615713042
 20
-1325.450101988718
 30
0.0
 10
2884.281033150756
 20
-1325.62386982125
 30
0.0
 10
2884.281033150756
 20
-1325.62386982125
 30
0.0
 10
2884.363739955663
 20
-1325.518606615004
 30
0.0
 10
2884.514672912766
 20
-1325.421697631477
 30
0.0
 10
2884.734110496155
 20
-1325.421697631477
 30
0.0
 10
2885.078861420313
 20
-1325.421697631477
 30
0.0
 10
2885.275742602364
 20
-1325.666754831201
 30
0.0
 10
2885.275742602364
 20
-1326.034340630788
 30
0.0
  0
POLYLINE
  5
DE
330
2
100
AcDbEntity
  8
Layout
370
     0
100
AcDb2dPolyline
 66
     1
 10
0.0
 20
0.0
 30
0.0
  0
VERTEX
  5
DF
330
DE
100
AcDbEntity
  8
Layout
370
     0
100
AcDbVertex
100
AcDb2dVertex
 10
2887.642493898339
 20
-1326.90930622344
 30
0.0
  0
VERTEX
  5
E0
330
DE
100
AcDbEntity
  8
Layout
370
     0
100
AcDbVertex
100
AcDb2dVertex
 10
2887.631076460624
 20
-1326.90930622344
 30
0.0
  0
VERTEX
  5
E1
330
DE
100
AcDbEntity
  8
Layout
370
     0
100
AcDbVertex
100
AcDb2dVertex
 10
2887.220884125176
 20
-1326.059960247123
 30
0.0
  0
VERTEX
  5
E2
330
DE
100
AcDbEntity
  8
Layout
370
     0
100
AcDbVertex
100
AcDb2dVertex
 10
2886.807628574732
 20
-1326.90930622344
 30
0.0
  0
VERTEX
  5
E3
330
DE
100
AcDbEntity
  8
Layout
370
     0
100
AcDbVertex
100
AcDb2dVertex
 10
2886.796211137017
 20
-1326.90930622344
 30
0.0
  0
VERTEX
  5
E4
330
DE
100
AcDbEntity
  8
Layout
370
     0
100
AcDbVertex
100
AcDb2dVertex
 10
2886.160454788187
 20
-1325.450101988718
 30
0.0
  0
VERTEX
  5
E5
330
DE
100
AcDbEntity
  8
Layout
370
     0
100
AcDbVertex
100
AcDb2dVertex
 10
2886.474016614198
 20
-1325.450101988718
 30
0.0
  0
VERTEX
  5
E6
330
DE
100
AcDbEntity
  8
Layout
370
     0
100
AcDbVertex
100
AcDb2dVertex
 10
2886.821830753352
 20
-1326.279397830512
 30
0.0
  0
VERTEX
  5
E7
330
DE
100
AcDbEntity
  8
Layout
370
     0
100
AcDbVertex
100
AcDb2dVertex
 10
2887.215036169274
 20
-1325.450101988718
 30
0.0
  0
VERTEX
  5
E8
330
DE
100
AcDbEntity
  8
Layout
370
     0
100
AcDbVertex
100
AcDb2dVertex
 10
2887.226453606988
 20
-1325.450101988718
 30
0.0
  0
VERTEX
  5
E9
330
DE
100
AcDbEntity
  8
Layout
370
     0
100
AcDbVertex
100
AcDb2dVertex
 10
2887.619659022909
 20
-1326.279397830512
 30
0.0
  0
VERTEX
  5
EA
330
DE
100
AcDbEntity
  8
Layout
370
     0
100
AcDbVertex
100
AcDb2dVertex
 10
2887.967473162063
 20
-1325.450101988718
 30
0.0
  0
VERTEX
  5
EB
330
DE
100
AcDbEntity
  8
Layout
370
     0
100
AcDbVertex
100
AcDb2dVertex
 10
2888.277971773078
 20
-1325.450101988718
 30
0.0
  0
VERTEX
  5
EC
330
DE
100
AcDbEntity
  8
Layout
370
     0
100
AcDbVertex
100
AcDb2dVertex
 10
2887.642493898339
 20
-1326.90930622344
 30
0.0
  0
SEQEND
  5
ED
330
DE
100
AcDbEntity
  8
Layout
370
     0
  0
HATCH
  5
EE
330
2
100
AcDbEntity
  8
Layout
 62
   250
420
  1842203
100
AcDbHatch
 10
0.0
 20
0.0
 30
0.0
210
0.0
220
0.0
230
1.0
  2
SOLID
 70
     1
 71
     0
 91
        1
 92
        1
 93
       13
 72
     1
 10
2887.642493898339
 20
-1326.90930622344
 11
2887.631076460624
 21
-1326.90930622344
 72
     1
 10
2887.631076460624
 20
-1326.90930622344
 11
2887.220884125176
 21
-1326.059960247123
 72
     1
 10
2887.220884125176
 20
-1326.059960247123
 11
2886.807628574732
 21
-1326.90930622344
 72
     1
 10
2886.807628574732
 20
-1326.90930622344
 11
2886.796211137017
 21
-1326.90930622344
 72
     1
 10
2886.796211137017
 20
-1326.90930622344
 11
2886.160454788187
 21
-1325.450101988718
 72
     1
 10
2886.160454788187
 20
-1325.450101988718
 11
2886.474016614198
 21
-1325.450101988718
 72
     1
 10
2886.474016614198
 20
-1325.450101988718
 11
2886.821830753352
 21
-1326.279397830512
 72
     1
 10
2886.821830753352
 20
-1326.279397830512
 11
2887.215036169274
 21
-1325.450101988718
 72
     1
 10
2887.215036169274
 20
-1325.450101988718
 11
2887.226453606988
 21
-1325.450101988718
 72
     1
 10
2887.226453606988
 20
-1325.450101988718
 11
2887.619659022909
 21
-1326.279397830512
 72
     1
 10
2887.619659022909
 20
-1326.279397830512
 11
2887.967473162063
 21
-1325.450101988718
 72
     1
 10
2887.967473162063
 20
-1325.450101988718
 11
2888.277971773078
 21
-1325.450101988718
 72
     1
 10
2888.277971773078
 20
-1325.450101988718
 11
2887.642493898339
 21
-1326.90930622344
 97
        0
 75
     2
 76
     1
 98
        0
450
        0
451
        0
460
0.0
461
0.0
452
        1
462
0.0
453
        0
470

  0
SPLINE
  5
EF
330
2
100
AcDbEntity
  8
Layout
370
     0
100
AcDbSpline
210
0.0
220
0.0
230
1.0
 70
     9
 71
     3
 72
    32
 73
    28
 74
     0
 42
0.000000001
 43
0.0000000001
 40
0.0
 40
0.0
 40
0.0
 40
0.0
 40
1.0
 40
1.0
 40
1.0
 40
2.0
 40
2.0
 40
2.0
 40
3.0
 40
3.0
 40
3.0
 40
4.0
 40
4.0
 40
4.0
 40
5.0
 40
5.0
 40
5.0
 40
6.0
 40
6.0
 40
6.0
 40
7.0
 40
7.0
 40
7.0
 40
8.0
 40
8.0
 40
8.0
 40
9.0
 40
9.0
 40
9.0
 40
9.0
 10
2889.476245784911
 20
-1325.62386982125
 30
0.0
 10
2889.476245784911
 20
-1325.62386982125
 30
0.0
 10
2889.487663222626
 20
-1325.450101988718
 30
0.0
 10
2889.487663222626
 20
-1325.450101988718
 30
0.0
 10
2889.487663222626
 20
-1325.450101988718
 30
0.0
 10
2889.741353119158
 20
-1325.450101988718
 30
0.0
 10
2889.741353119158
 20
-1325.450101988718
 30
0.0
 10
2889.741353119158
 20
-1325.450101988718
 30
0.0
 10
2889.741353119158
 20
-1326.880901866199
 30
0.0
 10
2889.741353119158
 20
-1326.880901866199
 30
0.0
 10
2889.741353119158
 20
-1326.880901866199
 30
0.0
 10
2889.487663222626
 20
-1326.880901866199
 30
0.0
 10
2889.487663222626
 20
-1326.880901866199
 30
0.0
 10
2889.487663222626
 20
-1326.880901866199
 30
0.0
 10
2889.476245784911
 20
-1326.706855559577
 30
0.0
 10
2889.476245784911
 20
-1326.706855559577
 30
0.0
 10
2889.393538980005
 20
-1326.815181980819
 30
0.0
 10
2889.242606022902
 20
-1326.90930622344
 30
0.0
 10
2889.017320483609
 20
-1326.90930622344
 30
0.0
 10
2888.624115067689
 20
-1326.90930622344
 30
0.0
 10
2888.356222992534
 20
-1326.595744397429
 30
0.0
 10
2888.356222992534
 20
-1326.165501927458
 30
0.0
 10
2888.356222992534
 20
-1325.735259457488
 30
0.0
 10
2888.624115067689
 20
-1325.421697631477
 30
0.0
 10
2889.017320483609
 20
-1325.421697631477
 30
0.0
 10
2889.242606022902
 20
-1325.421697631477
 30
0.0
 10
2889.393538980005
 20
-1325.515543400008
 30
0.0
 10
2889.476245784911
 20
-1325.62386982125
 30
0.0
  0
SPLINE
  5
F0
330
2
100
AcDbEntity
  8
Layout
370
     0
100
AcDbSpline
210
0.0
220
0.0
230
1.0
 70
    11
 71
     3
 72
    20
 73
    16
 74
     0
 42
0.000000001
 43
0.0000000001
 40
0.0
 40
0.0
 40
0.0
 40
0.0
 40
1.0
 40
1.0
 40
1.0
 40
2.0
 40
2.0
 40
2.0
 40
3.0
 40
3.0
 40
3.0
 40
4.0
 40
4.0
 40
4.0
 40
5.0
 40
5.0
 40
5.0
 40
5.0
 10
2888.638317246309
 20
-1326.165501927458
 30
0.0
 10
2888.638317246309
 20
-1326.461798359852
 30
0.0
 10
2888.817933034743
 20
-1326.661464282809
 30
0.0
 10
2889.06883819037
 20
-1326.661464282809
 30
0.0
 10
2889.259592942428
 20
-1326.661464282809
 30
0.0
 10
2889.376552060478
 20
-1326.55870734338
 30
0.0
 10
2889.462043606291
 20
-1326.419191823991
 30
0.0
 10
2889.462043606291
 20
-1326.419191823991
 30
0.0
 10
2889.462043606291
 20
-1325.911812030926
 30
0.0
 10
2889.462043606291
 20
-1325.911812030926
 30
0.0
 10
2889.376552060478
 20
-1325.772296511537
 30
0.0
 10
2889.259592942428
 20
-1325.669539572107
 30
0.0
 10
2889.06883819037
 20
-1325.669539572107
 30
0.0
 10
2888.817933034743
 20
-1325.669539572107
 30
0.0
 10
2888.638317246309
 20
-1325.869205495065
 30
0.0
 10
2888.638317246309
 20
-1326.165501927458
 30
0.0
  0
SPLINE
  5
F1
330
2
100
AcDbEntity
  8
Layout
370
     0
100
AcDbSpline
210
0.0
220
0.0
230
1.0
 70
     9
 71
     3
 72
    41
 73
    37
 74
     0
 42
0.000000001
 43
0.0000000001
 40
0.0
 40
0.0
 40
0.0
 40
0.0
 40
1.0
 40
1.0
 40
1.0
 40
2.0
 40
2.0
 40
2.0
 40
3.0
 40
3.0
 40
3.0
 40
4.0
 40
4.0
 40
4.0
 40
5.0
 40
5.0
 40
5.0
 40
6.0
 40
6.0
 40
6.0
 40
7.0
 40
7.0
 40
7.0
 40
8.0
 40
8.0
 40
8.0
 40
9.0
 40
9.0
 40
9.0
 40
10.0
 40
10.0
 40
10.0
 40
11.0
 40
11.0
 40
11.0
 40
12.0
 40
12.0
 40
12.0
 40
12.0
 10
2891.440880494064
 20
-1326.034340630788
 30
0.0
 10
2891.440880494064
 20
-1326.034340630788
 30
0.0
 10
2891.440880494064
 20
-1326.880901866199
 30
0.0
 10
2891.440880494064
 20
-1326.880901866199
 30
0.0
 10
2891.440880494064
 20
-1326.880901866199
 30
0.0
 10
2891.161570981197
 20
-1326.880901866199
 30
0.0
 10
2891.161570981197
 20
-1326.880901866199
 30
0.0
 10
2891.161570981197
 20
-1326.880901866199
 30
0.0
 10
2891.161570981197
 20
-1326.051606024405
 30
0.0
 10
2891.161570981197
 20
-1326.051606024405
 30
0.0
 10
2891.161570981197
 20
-1325.834953181921
 30
0.0
 10
2891.033194425433
 20
-1325.686804965724
 30
0.0
 10
2890.830743761569
 20
-1325.686804965724
 30
0.0
 10
2890.66282388494
 20
-1325.686804965724
 30
0.0
 10
2890.548649507796
 20
-1325.789283431064
 30
0.0
 10
2890.460373221077
 20
-1325.914596771831
 30
0.0
 10
2890.460373221077
 20
-1325.914596771831
 30
0.0
 10
2890.460373221077
 20
-1326.880901866199
 30
0.0
 10
2890.460373221077
 20
-1326.880901866199
 30
0.0
 10
2890.460373221077
 20
-1326.880901866199
 30
0.0
 10
2890.181063708209
 20
-1326.880901866199
 30
0.0
 10
2890.181063708209
 20
-1326.880901866199
 30
0.0
 10
2890.181063708209
 20
-1326.880901866199
 30
0.0
 10
2890.181063708209
 20
-1325.450101988718
 30
0.0
 10
2890.181063708209
 20
-1325.450101988718
 30
0.0
 10
2890.181063708209
 20
-1325.450101988718
 30
0.0
 10
2890.434753604742
 20
-1325.450101988718
 30
0.0
 10
2890.434753604742
 20
-1325.450101988718
 30
0.0
 10
2890.434753604742
 20
-1325.450101988718
 30
0.0
 10
2890.446171042457
 20
-1325.62386982125
 30
0.0
 10
2890.446171042457
 20
-1325.62386982125
 30
0.0
 10
2890.528877847363
 20
-1325.518606615004
 30
0.0
 10
2890.679810804467
 20
-1325.421697631477
 30
0.0
 10
2890.899248387856
 20
-1325.421697631477
 30
0.0
 10
2891.243999312014
 20
-1325.421697631477
 30
0.0
 10
2891.440880494064
 20
-1325.666754831201
 30
0.0
 10
2891.440880494064
 20
-1326.034340630788
 30
0.0
  0
SPLINE
  5
F2
330
2
100
AcDbEntity
  8
Layout
370
     0
100
AcDbSpline
210
0.0
220
0.0
230
1.0
 70
    11
 71
     3
 72
    32
 73
    28
 74
     0
 42
0.000000001
 43
0.0000000001
 40
0.0
 40
0.0
 40
0.0
 40
0.0
 40
1.0
 40
1.0
 40
1.0
 40
2.0
 40
2.0
 40
2.0
 40
3.0
 40
3.0
 40
3.0
 40
4.0
 40
4.0
 40
4.0
 40
5.0
 40
5.0
 40
5.0
 40
6.0
 40
6.0
 40
6.0
 40
7.0
 40
7.0
 40
7.0
 40
8.0
 40
8.0
 40
8.0
 40
9.0
 40
9.0
 40
9.0
 40
9.0
 10
2893.094738118113
 20
-1326.880901866199
 30
0.0
 10
2893.094738118113
 20
-1326.880901866199
 30
0.0
 10
2892.841048221581
 20
-1326.880901866199
 30
0.0
 10
2892.841048221581
 20
-1326.880901866199
 30
0.0
 10
2892.841048221581
 20
-1326.880901866199
 30
0.0
 10
2892.829630783866
 20
-1326.706855559577
 30
0.0
 10
2892.829630783866
 20
-1326.706855559577
 30
0.0
 10
2892.746923978959
 20
-1326.815181980819
 30
0.0
 10
2892.595991021856
 20
-1326.90930622344
 30
0.0
 10
2892.370705482564
 20
-1326.90930622344
 30
0.0
 10
2891.977500066643
 20
-1326.90930622344
 30
0.0
 10
2891.70960799149
 20
-1326.595744397429
 30
0.0
 10
2891.70960799149
 20
-1326.165501927458
 30
0.0
 10
2891.70960799149
 20
-1325.735259457488
 30
0.0
 10
2891.977500066643
 20
-1325.421697631477
 30
0.0
 10
2892.370705482564
 20
-1325.421697631477
 30
0.0
 10
2892.584573584142
 20
-1325.421697631477
 30
0.0
 10
2892.729937059433
 20
-1325.504404436384
 30
0.0
 10
2892.815428605246
 20
-1325.604098160817
 30
0.0
 10
2892.815428605246
 20
-1325.604098160817
 30
0.0
 10
2892.815428605246
 20
-1324.714930389545
 30
0.0
 10
2892.815428605246
 20
-1324.714930389545
 30
0.0
 10
2892.815428605246
 20
-1324.714930389545
 30
0.0
 10
2893.094738118113
 20
-1324.714930389545
 30
0.0
 10
2893.094738118113
 20
-1324.714930389545
 30
0.0
 10
2893.094738118113
 20
-1324.714930389545
 30
0.0
 10
2893.094738118113
 20
-1326.880901866199
 30
0.0
 10
2893.094738118113
 20
-1326.880901866199
 30
0.0
  0
SPLINE
  5
F3
330
2
100
AcDbEntity
  8
Layout
370
     0
100
AcDbSpline
210
0.0
220
0.0
230
1.0
 70
    11
 71
     3
 72
    20
 73
    16
 74
     0
 42
0.000000001
 43
0.0000000001
 40
0.0
 40
0.0
 40
0.0
 40
0.0
 40
1.0
 40
1.0
 40
1.0
 40
2.0
 40
2.0
 40
2.0
 40
3.0
 40
3.0
 40
3.0
 40
4.0
 40
4.0
 40
4.0
 40
5.0
 40
5.0
 40
5.0
 40
5.0
 10
2891.991702245264
 20
-1326.165501927458
 30
0.0
 10
2891.991702245264
 20
-1326.461798359852
 30
0.0
 10
2892.171318033698
 20
-1326.661464282809
 30
0.0
 10
2892.422223189324
 20
-1326.661464282809
 30
0.0
 10
2892.612977941383
 20
-1326.661464282809
 30
0.0
 10
2892.729937059433
 20
-1326.55870734338
 30
0.0
 10
2892.815428605246
 20
-1326.419191823991
 30
0.0
 10
2892.815428605246
 20
-1326.419191823991
 30
0.0
 10
2892.815428605246
 20
-1325.911812030926
 30
0.0
 10
2892.815428605246
 20
-1325.911812030926
 30
0.0
 10
2892.729937059433
 20
-1325.772296511537
 30
0.0
 10
2892.612977941383
 20
-1325.669539572107
 30
0.0
 10
2892.422223189324
 20
-1325.669539572107
 30
0.0
 10
2892.171318033698
 20
-1325.669539572107
 30
0.0
 10
2891.991702245264
 20
-1325.869205495065
 30
0.0
 10
2891.991702245264
 20
-1326.165501927458
 30
0.0
  0
POLYLINE
  5
F4
330
2
100
AcDbEntity
  8
Layout
370
     0
100
AcDb2dPolyline
 66
     1
 10
0.0
 20
0.0
 30
0.0
  0
VERTEX
  5
F5
330
F4
100
AcDbEntity
  8
Layout
370
     0
100
AcDbVertex
100
AcDb2dVertex
 10
2851.260085041925
 20
-1318.863784452914
 30
0.0
  0
VERTEX
  5
F6
330
F4
100
AcDbEntity
  8
Layout
370
     0
100
AcDbVertex
100
AcDb2dVertex
 10
2849.387393567172
 20
-1318.863784452914
 30
0.0
  0
VERTEX
  5
F7
330
F4
100
AcDbEntity
  8
Layout
370
     0
100
AcDbVertex
100
AcDb2dVertex
 10
2849.387393567172
 20
-1319.658852472423
 30
0.0
  0
VERTEX
  5
F8
330
F4
100
AcDbEntity
  8
Layout
370
     0
100
AcDbVertex
100
AcDb2dVertex
 10
2850.911781746569
 20
-1319.658852472423
 30
0.0
  0
VERTEX
  5
F9
330
F4
100
AcDbEntity
  8
Layout
370
     0
100
AcDbVertex
100
AcDb2dVertex
 10
2850.911781746569
 20
-1320.703441637223
 30
0.0
  0
VERTEX
  5
FA
330
F4
100
AcDbEntity
  8
Layout
370
     0
100
AcDbVertex
100
AcDb2dVertex
 10
2849.387393567172
 20
-1320.703441637223
 30
0.0
  0
VERTEX
  5
FB
330
F4
100
AcDbEntity
  8
Layout
370
     0
100
AcDbVertex
100
AcDb2dVertex
 10
2849.387393567172
 20
-1322.55592767219
 30
0.0
  0
VERTEX
  5
FC
330
F4
100
AcDbEntity
  8
Layout
370
     0
100
AcDbVertex
100
AcDb2dVertex
 10
2848.139146398182
 20
-1322.55592767219
 30
0.0
  0
VERTEX
  5
FD
330
F4
100
AcDbEntity
  8
Layout
370
     0
100
AcDbVertex
100
AcDb2dVertex
 10
2848.139146398182
 20
-1317.727308645278
 30
0.0
  0
VERTEX
  5
FE
330
F4
100
AcDbEntity
  8
Layout
370
     0
100
AcDbVertex
100
AcDb2dVertex
 10
2851.260085041925
 20
-1317.727148284646
 30
0.0
  0
VERTEX
  5
FF
330
F4
100
AcDbEntity
  8
Layout
370
     0
100
AcDbVertex
100
AcDb2dVertex
 10
2851.260085041925
 20
-1318.863784452914
 30
0.0
  0
SEQEND
  5
100
330
F4
100
AcDbEntity
  8
Layout
370
     0
  0
POLYLINE
  5
101
330
2
100
AcDbEntity
  8
Layout
370
     0
100
AcDb2dPolyline
 66
     1
 10
0.0
 20
0.0
 30
0.0
  0
VERTEX
  5
102
330
101
100
AcDbEntity
  8
Layout
370
     0
100
AcDbVertex
100
AcDb2dVertex
 10
2855.542676112719
 20
-1322.55592767219
 30
0.0
  0
VERTEX
  5
103
330
101
100
AcDbEntity
  8
Layout
370
     0
100
AcDbVertex
100
AcDb2dVertex
 10
2854.143369227234
 20
-1322.55592767219
 30
0.0
  0
VERTEX
  5
104
330
101
100
AcDbEntity
  8
Layout
370
     0
100
AcDbVertex
100
AcDb2dVertex
 10
2853.920147225791
 20
-1321.991137521986
 30
0.0
  0
VERTEX
  5
105
330
101
100
AcDbEntity
  8
Layout
370
     0
100
AcDbVertex
100
AcDb2dVertex
 10
2852.304032764192
 20
-1321.991137521986
 30
0.0
  0
VERTEX
  5
106
330
101
100
AcDbEntity
  8
Layout
370
     0
100
AcDbVertex
100
AcDb2dVertex
 10
2852.080490041482
 20
-1322.55592767219
 30
0.0
  0
VERTEX
  5
107
330
101
100
AcDbEntity
  8
Layout
370
     0
100
AcDbVertex
100
AcDb2dVertex
 10
2850.681183155998
 20
-1322.55592767219
 30
0.0
  0
VERTEX
  5
108
330
101
100
AcDbEntity
  8
Layout
370
     0
100
AcDbVertex
100
AcDb2dVertex
 10
2853.098780062433
 20
-1317.641836427772
 30
0.0
  0
VERTEX
  5
109
330
101
100
AcDbEntity
  8
Layout
370
     0
100
AcDbVertex
100
AcDb2dVertex
 10
2853.125079206283
 20
-1317.641836427772
 30
0.0
  0
VERTEX
  5
10A
330
101
100
AcDbEntity
  8
Layout
370
     0
100
AcDbVertex
100
AcDb2dVertex
 10
2855.542676112719
 20
-1322.55592767219
 30
0.0
  0
SEQEND
  5
10B
330
101
100
AcDbEntity
  8
Layout
370
     0
  0
POLYLINE
  5
10C
330
2
100
AcDbEntity
  8
Layout
370
     0
100
AcDb2dPolyline
 66
     1
 10
0.0
 20
0.0
 30
0.0
  0
VERTEX
  5
10D
330
10C
100
AcDbEntity
  8
Layout
370
     0
100
AcDbVertex
100
AcDb2dVertex
 10
2852.671900056801
 20
-1321.058159357907
 30
0.0
  0
VERTEX
  5
10E
330
10C
100
AcDbEntity
  8
Layout
370
     0
100
AcDbVertex
100
AcDb2dVertex
 10
2853.552279933182
 20
-1321.058159357907
 30
0.0
  0
VERTEX
  5
10F
330
10C
100
AcDbEntity
  8
Layout
370
     0
100
AcDbVertex
100
AcDb2dVertex
 10
2853.111929634358
 20
-1319.928258336234
 30
0.0
  0
VERTEX
  5
110
330
10C
100
AcDbEntity
  8
Layout
370
     0
100
AcDbVertex
100
AcDb2dVertex
 10
2852.671900056801
 20
-1321.058159357907
 30
0.0
  0
SEQEND
  5
111
330
10C
100
AcDbEntity
  8
Layout
370
     0
  0
SPLINE
  5
112
330
2
100
AcDbEntity
  8
Layout
370
     0
100
AcDbSpline
210
0.0
220
0.0
230
1.0
 70
     9
 71
     3
 72
    47
 73
    43
 74
     0
 42
0.000000001
 43
0.0000000001
 40
0.0
 40
0.0
 40
0.0
 40
0.0
 40
1.0
 40
1.0
 40
1.0
 40
2.0
 40
2.0
 40
2.0
 40
3.0
 40
3.0
 40
3.0
 40
4.0
 40
4.0
 40
4.0
 40
5.0
 40
5.0
 40
5.0
 40
6.0
 40
6.0
 40
6.0
 40
7.0
 40
7.0
 40
7.0
 40
8.0
 40
8.0
 40
8.0
 40
9.0
 40
9.0
 40
9.0
 40
10.0
 40
10.0
 40
10.0
 40
11.0
 40
11.0
 40
11.0
 40
12.0
 40
12.0
 40
12.0
 40
13.0
 40
13.0
 40
13.0
 40
14.0
 40
14.0
 40
14.0
 40
14.0
 10
2859.339053743587
 20
-1318.147613864951
 30
0.0
 10
2859.339053743587
 20
-1318.147613864951
 30
0.0
 10
2858.695366161839
 20
-1319.179053457826
 30
0.0
 10
2858.695366161839
 20
-1319.179053457826
 30
0.0
 10
2858.419225151433
 20
-1318.955831456383
 30
0.0
 10
2858.071242577344
 20
-1318.778472596041
 30
0.0
 10
2857.55872999357
 20
-1318.778472596041
 30
0.0
 10
2857.204012272886
 20
-1318.778472596041
 30
0.0
 10
2857.033067837872
 20
-1318.896498022091
 30
0.0
 10
2857.033067837872
 20
-1319.12645517013
 30
0.0
 10
2857.033067837872
 20
-1319.290985179814
 30
0.0
 10
2857.151413985189
 20
-1319.409010605865
 30
0.0
 10
2857.801836713533
 20
-1319.520621606587
 30
0.0
 10
2859.109096595549
 20
-1319.790027470397
 30
0.0
 10
2859.470549462828
 20
-1320.289390482247
 30
0.0
 10
2859.470549462828
 20
-1321.025125067464
 30
0.0
 10
2859.470549462828
 20
-1321.997551947315
 30
0.0
 10
2858.760793300193
 20
-1322.641560250329
 30
0.0
 10
2857.565144418899
 20
-1322.641560250329
 30
0.0
 10
2856.809845836428
 20
-1322.641560250329
 30
0.0
 10
2856.106824820389
 20
-1322.411603102291
 30
0.0
 10
2855.613876233868
 20
-1321.977987950061
 30
0.0
 10
2855.613876233868
 20
-1321.977987950061
 30
0.0
 10
2856.284183680731
 20
-1320.93981321059
 30
0.0
 10
2856.284183680731
 20
-1320.93981321059
 30
0.0
 10
2856.593038260315
 20
-1321.281381359351
 30
0.0
 10
2857.13152926667
 20
-1321.50492408206
 30
0.0
 10
2857.604593134671
 20
-1321.50492408206
 30
0.0
 10
2858.031793861571
 20
-1321.50492408206
 30
0.0
 10
2858.222302293838
 20
-1321.380163509415
 30
0.0
 10
2858.222302293838
 20
-1321.143471214781
 30
0.0
 10
2858.222302293838
 20
-1320.972847501034
 30
0.0
 10
2858.084071428001
 20
-1320.854501353717
 30
0.0
 10
2857.433969420924
 20
-1320.7361552064
 30
0.0
 10
2856.133123964238
 20
-1320.460334917261
 30
0.0
 10
2855.778085522286
 20
-1319.888809620461
 30
0.0
 10
2855.778085522286
 20
-1319.19220302975
 30
0.0
 10
2855.778085522286
 20
-1318.311823153368
 30
0.0
 10
2856.467956966402
 20
-1317.641836427772
 30
0.0
 10
2857.565144418899
 20
-1317.641836427772
 30
0.0
 10
2858.281315006863
 20
-1317.641836427772
 30
0.0
 10
2858.931737735206
 20
-1317.832344860038
 30
0.0
 10
2859.339053743587
 20
-1318.147613864951
 30
0.0
  0
POLYLINE
  5
113
330
2
100
AcDbEntity
  8
Layout
370
     0
100
AcDb2dPolyline
 66
     1
 10
0.0
 20
0.0
 30
0.0
  0
VERTEX
  5
114
330
113
100
AcDbEntity
  8
Layout
370
     0
100
AcDbVertex
100
AcDb2dVertex
 10
2863.89746510352
 20
-1318.824335737142
 30
0.0
  0
VERTEX
  5
115
330
113
100
AcDbEntity
  8
Layout
370
     0
100
AcDbVertex
100
AcDb2dVertex
 10
2862.425995933087
 20
-1318.824335737142
 30
0.0
  0
VERTEX
  5
116
330
113
100
AcDbEntity
  8
Layout
370
     0
100
AcDbVertex
100
AcDb2dVertex
 10
2862.425995933087
 20
-1322.55592767219
 30
0.0
  0
VERTEX
  5
117
330
113
100
AcDbEntity
  8
Layout
370
     0
100
AcDbVertex
100
AcDb2dVertex
 10
2861.177748764096
 20
-1322.55592767219
 30
0.0
  0
VERTEX
  5
118
330
113
100
AcDbEntity
  8
Layout
370
     0
100
AcDbVertex
100
AcDb2dVertex
 10
2861.177748764096
 20
-1318.824335737142
 30
0.0
  0
VERTEX
  5
119
330
113
100
AcDbEntity
  8
Layout
370
     0
100
AcDbVertex
100
AcDb2dVertex
 10
2859.705958872396
 20
-1318.824335737142
 30
0.0
  0
VERTEX
  5
11A
330
113
100
AcDbEntity
  8
Layout
370
     0
100
AcDbVertex
100
AcDb2dVertex
 10
2859.705958872396
 20
-1317.727148284646
 30
0.0
  0
VERTEX
  5
11B
330
113
100
AcDbEntity
  8
Layout
370
     0
100
AcDbVertex
100
AcDb2dVertex
 10
2863.89746510352
 20
-1317.727148284646
 30
0.0
  0
VERTEX
  5
11C
330
113
100
AcDbEntity
  8
Layout
370
     0
100
AcDbVertex
100
AcDb2dVertex
 10
2863.89746510352
 20
-1318.824335737142
 30
0.0
  0
SEQEND
  5
11D
330
113
100
AcDbEntity
  8
Layout
370
     0
  0
POLYLINE
  5
11E
330
2
100
AcDbEntity
  8
Layout
370
     0
100
AcDb2dPolyline
 66
     1
 10
0.0
 20
0.0
 30
0.0
  0
VERTEX
  5
11F
330
11E
100
AcDbEntity
  8
Layout
370
     0
100
AcDbVertex
100
AcDb2dVertex
 10
2867.660808443946
 20
-1318.863784452914
 30
0.0
  0
VERTEX
  5
120
330
11E
100
AcDbEntity
  8
Layout
370
     0
100
AcDbVertex
100
AcDb2dVertex
 10
2865.696390686991
 20
-1318.863784452914
 30
0.0
  0
VERTEX
  5
121
330
11E
100
AcDbEntity
  8
Layout
370
     0
100
AcDbVertex
100
AcDb2dVertex
 10
2865.696390686991
 20
-1319.586369466207
 30
0.0
  0
VERTEX
  5
122
330
11E
100
AcDbEntity
  8
Layout
370
     0
100
AcDbVertex
100
AcDb2dVertex
 10
2867.384988154806
 20
-1319.586369466207
 30
0.0
  0
VERTEX
  5
123
330
11E
100
AcDbEntity
  8
Layout
370
     0
100
AcDbVertex
100
AcDb2dVertex
 10
2867.384988154806
 20
-1320.630958631007
 30
0.0
  0
VERTEX
  5
124
330
11E
100
AcDbEntity
  8
Layout
370
     0
100
AcDbVertex
100
AcDb2dVertex
 10
2865.696390686991
 20
-1320.630958631007
 30
0.0
  0
VERTEX
  5
125
330
11E
100
AcDbEntity
  8
Layout
370
     0
100
AcDbVertex
100
AcDb2dVertex
 10
2865.696390686991
 20
-1321.419291503921
 30
0.0
  0
VERTEX
  5
126
330
11E
100
AcDbEntity
  8
Layout
370
     0
100
AcDbVertex
100
AcDb2dVertex
 10
2867.713406731642
 20
-1321.419291503921
 30
0.0
  0
VERTEX
  5
127
330
11E
100
AcDbEntity
  8
Layout
370
     0
100
AcDbVertex
100
AcDb2dVertex
 10
2867.713406731642
 20
-1322.55592767219
 30
0.0
  0
VERTEX
  5
128
330
11E
100
AcDbEntity
  8
Layout
370
     0
100
AcDbVertex
100
AcDb2dVertex
 10
2864.448143518
 20
-1322.55592767219
 30
0.0
  0
VERTEX
  5
129
330
11E
100
AcDbEntity
  8
Layout
370
     0
100
AcDbVertex
100
AcDb2dVertex
 10
2864.448143518
 20
-1317.727148284646
 30
0.0
  0
VERTEX
  5
12A
330
11E
100
AcDbEntity
  8
Layout
370
     0
100
AcDbVertex
100
AcDb2dVertex
 10
2867.660808443946
 20
-1317.727148284646
 30
0.0
  0
VERTEX
  5
12B
330
11E
100
AcDbEntity
  8
Layout
370
     0
100
AcDbVertex
100
AcDb2dVertex
 10
2867.660808443946
 20
-1318.863784452914
 30
0.0
  0
SEQEND
  5
12C
330
11E
100
AcDbEntity
  8
Layout
370
     0
  0
POLYLINE
  5
12D
330
2
100
AcDbEntity
  8
Layout
370
     0
100
AcDb2dPolyline
 66
     1
 10
0.0
 20
0.0
 30
0.0
  0
VERTEX
  5
12E
330
12D
100
AcDbEntity
  8
Layout
370
     0
100
AcDbVertex
100
AcDb2dVertex
 10
2872.410048957412
 20
-1322.641560250329
 30
0.0
  0
VERTEX
  5
12F
330
12D
100
AcDbEntity
  8
Layout
370
     0
100
AcDbVertex
100
AcDb2dVertex
 10
2872.383749813564
 20
-1322.641560250329
 30
0.0
  0
VERTEX
  5
130
330
12D
100
AcDbEntity
  8
Layout
370
     0
100
AcDbVertex
100
AcDb2dVertex
 10
2869.657298327544
 20
-1320.276240910323
 30
0.0
  0
VERTEX
  5
131
330
12D
100
AcDbEntity
  8
Layout
370
     0
100
AcDbVertex
100
AcDb2dVertex
 10
2869.657298327544
 20
-1322.55592767219
 30
0.0
  0
VERTEX
  5
132
330
12D
100
AcDbEntity
  8
Layout
370
     0
100
AcDbVertex
100
AcDb2dVertex
 10
2868.409051158554
 20
-1322.55592767219
 30
0.0
  0
VERTEX
  5
133
330
12D
100
AcDbEntity
  8
Layout
370
     0
100
AcDbVertex
100
AcDb2dVertex
 10
2868.409051158554
 20
-1317.641836427772
 30
0.0
  0
VERTEX
  5
134
330
12D
100
AcDbEntity
  8
Layout
370
     0
100
AcDbVertex
100
AcDb2dVertex
 10
2868.435350302402
 20
-1317.641836427772
 30
0.0
  0
VERTEX
  5
135
330
12D
100
AcDbEntity
  8
Layout
370
     0
100
AcDbVertex
100
AcDb2dVertex
 10
2871.161801788421
 20
-1320.006835046512
 30
0.0
  0
VERTEX
  5
136
330
12D
100
AcDbEntity
  8
Layout
370
     0
100
AcDbVertex
100
AcDb2dVertex
 10
2871.161801788421
 20
-1317.727148284646
 30
0.0
  0
VERTEX
  5
137
330
12D
100
AcDbEntity
  8
Layout
370
     0
100
AcDbVertex
100
AcDb2dVertex
 10
2872.410048957412
 20
-1317.727148284646
 30
0.0
  0
VERTEX
  5
138
330
12D
100
AcDbEntity
  8
Layout
370
     0
100
AcDbVertex
100
AcDb2dVertex
 10
2872.410048957412
 20
-1322.641560250329
 30
0.0
  0
SEQEND
  5
139
330
12D
100
AcDbEntity
  8
Layout
370
     0
  0
POLYLINE
  5
13A
330
2
100
AcDbEntity
  8
Layout
370
     0
100
AcDb2dPolyline
 66
     1
 10
0.0
 20
0.0
 30
0.0
  0
VERTEX
  5
13B
330
13A
100
AcDbEntity
  8
Layout
370
     0
100
AcDbVertex
100
AcDb2dVertex
 10
2876.501810874673
 20
-1318.863784452914
 30
0.0
  0
VERTEX
  5
13C
330
13A
100
AcDbEntity
  8
Layout
370
     0
100
AcDbVertex
100
AcDb2dVertex
 10
2874.537393117718
 20
-1318.863784452914
 30
0.0
  0
VERTEX
  5
13D
330
13A
100
AcDbEntity
  8
Layout
370
     0
100
AcDbVertex
100
AcDb2dVertex
 10
2874.537393117718
 20
-1319.586369466207
 30
0.0
  0
VERTEX
  5
13E
330
13A
100
AcDbEntity
  8
Layout
370
     0
100
AcDbVertex
100
AcDb2dVertex
 10
2876.225990585533
 20
-1319.586369466207
 30
0.0
  0
VERTEX
  5
13F
330
13A
100
AcDbEntity
  8
Layout
370
     0
100
AcDbVertex
100
AcDb2dVertex
 10
2876.225990585533
 20
-1320.630958631007
 30
0.0
  0
VERTEX
  5
140
330
13A
100
AcDbEntity
  8
Layout
370
     0
100
AcDbVertex
100
AcDb2dVertex
 10
2874.537393117718
 20
-1320.630958631007
 30
0.0
  0
VERTEX
  5
141
330
13A
100
AcDbEntity
  8
Layout
370
     0
100
AcDbVertex
100
AcDb2dVertex
 10
2874.537393117718
 20
-1321.419291503921
 30
0.0
  0
VERTEX
  5
142
330
13A
100
AcDbEntity
  8
Layout
370
     0
100
AcDbVertex
100
AcDb2dVertex
 10
2876.554409162369
 20
-1321.419291503921
 30
0.0
  0
VERTEX
  5
143
330
13A
100
AcDbEntity
  8
Layout
370
     0
100
AcDbVertex
100
AcDb2dVertex
 10
2876.554409162369
 20
-1322.55592767219
 30
0.0
  0
VERTEX
  5
144
330
13A
100
AcDbEntity
  8
Layout
370
     0
100
AcDbVertex
100
AcDb2dVertex
 10
2873.289145948728
 20
-1322.55592767219
 30
0.0
  0
VERTEX
  5
145
330
13A
100
AcDbEntity
  8
Layout
370
     0
100
AcDbVertex
100
AcDb2dVertex
 10
2873.289145948728
 20
-1317.727148284646
 30
0.0
  0
VERTEX
  5
146
330
13A
100
AcDbEntity
  8
Layout
370
     0
100
AcDbVertex
100
AcDb2dVertex
 10
2876.501810874673
 20
-1317.727148284646
 30
0.0
  0
VERTEX
  5
147
330
13A
100
AcDbEntity
  8
Layout
370
     0
100
AcDbVertex
100
AcDb2dVertex
 10
2876.501810874673
 20
-1318.863784452914
 30
0.0
  0
SEQEND
  5
148
330
13A
100
AcDbEntity
  8
Layout
370
     0
  0
SPLINE
  5
149
330
2
100
AcDbEntity
  8
Layout
370
     0
100
AcDbSpline
210
0.0
220
0.0
230
1.0
 70
     9
 71
     3
 72
    35
 73
    31
 74
     0
 42
0.000000001
 43
0.0000000001
 40
0.0
 40
0.0
 40
0.0
 40
0.0
 40
1.0
 40
1.0
 40
1.0
 40
2.0
 40
2.0
 40
2.0
 40
3.0
 40
3.0
 40
3.0
 40
4.0
 40
4.0
 40
4.0
 40
5.0
 40
5.0
 40
5.0
 40
6.0
 40
6.0
 40
6.0
 40
7.0
 40
7.0
 40
7.0
 40
8.0
 40
8.0
 40
8.0
 40
9.0
 40
9.0
 40
9.0
 40
10.0
 40
10.0
 40
10.0
 40
10.0
 10
2881.086842099721
 20
-1319.343262746244
 30
0.0
 10
2881.086842099721
 20
-1320.000420621183
 30
0.0
 10
2880.745273950961
 20
-1320.479898914513
 30
0.0
 10
2880.26579565763
 20
-1320.7361552064
 30
0.0
 10
2880.26579565763
 20
-1320.7361552064
 30
0.0
 10
2881.329948819684
 20
-1322.55592767219
 30
0.0
 10
2881.329948819684
 20
-1322.55592767219
 30
0.0
 10
2881.329948819684
 20
-1322.55592767219
 30
0.0
 10
2879.878043646503
 20
-1322.55592767219
 30
0.0
 10
2879.878043646503
 20
-1322.55592767219
 30
0.0
 10
2879.878043646503
 20
-1322.55592767219
 30
0.0
 10
2878.95180062902
 20
-1320.952962782514
 30
0.0
 10
2878.95180062902
 20
-1320.952962782514
 30
0.0
 10
2878.95180062902
 20
-1320.952962782514
 30
0.0
 10
2878.498300758272
 20
-1320.952962782514
 30
0.0
 10
2878.498300758272
 20
-1320.952962782514
 30
0.0
 10
2878.498300758272
 20
-1320.952962782514
 30
0.0
 10
2878.498300758272
 20
-1322.55592767219
 30
0.0
 10
2878.498300758272
 20
-1322.55592767219
 30
0.0
 10
2878.498300758272
 20
-1322.55592767219
 30
0.0
 10
2877.250053589281
 20
-1322.55592767219
 30
0.0
 10
2877.250053589281
 20
-1322.55592767219
 30
0.0
 10
2877.250053589281
 20
-1322.55592767219
 30
0.0
 10
2877.250053589281
 20
-1317.727148284646
 30
0.0
 10
2877.250053589281
 20
-1317.727148284646
 30
0.0
 10
2877.250053589281
 20
-1317.727148284646
 30
0.0
 10
2879.365531062729
 20
-1317.727148284646
 30
0.0
 10
2879.365531062729
 20
-1317.727148284646
 30
0.0
 10
2880.26579565763
 20
-1317.727148284646
 30
0.0
 10
2881.086842099721
 20
-1318.318558299964
 30
0.0
 10
2881.086842099721
 20
-1319.343262746244
 30
0.0
  0
SPLINE
  5
14A
330
2
100
AcDbEntity
  8
Layout
370
     0
100
AcDbSpline
210
0.0
220
0.0
230
1.0
 70
    11
 71
     3
 72
    20
 73
    16
 74
     0
 42
0.000000001
 43
0.0000000001
 40
0.0
 40
0.0
 40
0.0
 40
0.0
 40
1.0
 40
1.0
 40
1.0
 40
2.0
 40
2.0
 40
2.0
 40
3.0
 40
3.0
 40
3.0
 40
4.0
 40
4.0
 40
4.0
 40
5.0
 40
5.0
 40
5.0
 40
5.0
 10
2878.498300758272
 20
-1318.798036593294
 30
0.0
 10
2878.498300758272
 20
-1318.798036593294
 30
0.0
 10
2878.498300758272
 20
-1319.882074473866
 30
0.0
 10
2878.498300758272
 20
-1319.882074473866
 30
0.0
 10
2878.498300758272
 20
-1319.882074473866
 30
0.0
 10
2879.247505636679
 20
-1319.882074473866
 30
0.0
 10
2879.247505636679
 20
-1319.882074473866
 30
0.0
 10
2879.582338638844
 20
-1319.882074473866
 30
0.0
 10
2879.819030933477
 20
-1319.685151616271
 30
0.0
 10
2879.819030933477
 20
-1319.343262746244
 30
0.0
 10
2879.819030933477
 20
-1319.001694597484
 30
0.0
 10
2879.582338638844
 20
-1318.798036593294
 30
0.0
 10
2879.247505636679
 20
-1318.798036593294
 30
0.0
 10
2879.247505636679
 20
-1318.798036593294
 30
0.0
 10
2878.498300758272
 20
-1318.798036593294
 30
0.0
 10
2878.498300758272
 20
-1318.798036593294
 30
0.0
  0
HATCH
  5
14B
330
2
100
AcDbEntity
  8
Layout
 62
    22
420
 14820636
100
AcDbHatch
 10
0.0
 20
0.0
 30
0.0
210
0.0
220
0.0
230
1.0
  2
SOLID
 70
     1
 71
     0
 91
       10
 92
        1
 93
       10
 72
     1
 10
2851.260085041925
 20
-1318.863784452914
 11
2849.387393567173
 21
-1318.863784452914
 72
     1
 10
2849.387393567172
 20
-1318.863784452914
 11
2849.387393567172
 21
-1319.658852472423
 72
     1
 10
2849.387393567172
 20
-1319.658852472423
 11
2850.911781746569
 21
-1319.658852472423
 72
     1
 10
2850.911781746569
 20
-1319.658852472423
 11
2850.911781746569
 21
-1320.703441637223
 72
     1
 10
2850.911781746569
 20
-1320.703441637223
 11
2849.387393567172
 21
-1320.703441637223
 72
     1
 10
2849.387393567172
 20
-1320.703441637223
 11
2849.387393567172
 21
-1322.55592767219
 72
     1
 10
2849.387393567172
 20
-1322.55592767219
 11
2848.139146398182
 21
-1322.55592767219
 72
     1
 10
2848.139146398182
 20
-1322.55592767219
 11
2848.139146398182
 21
-1317.727308645279
 72
     1
 10
2848.139146398182
 20
-1317.727308645278
 11
2851.260085041925
 21
-1317.727148284645
 72
     1
 10
2851.260085041925
 20
-1317.727148284646
 11
2851.260085041925
 21
-1318.863784452915
 97
        0
 92
        1
 93
        8
 72
     1
 10
2855.542676112719
 20
-1322.55592767219
 11
2854.143369227234
 21
-1322.55592767219
 72
     1
 10
2854.143369227234
 20
-1322.55592767219
 11
2853.920147225791
 21
-1321.991137521986
 72
     1
 10
2853.920147225791
 20
-1321.991137521986
 11
2852.304032764191
 21
-1321.991137521986
 72
     1
 10
2852.304032764192
 20
-1321.991137521986
 11
2852.080490041482
 21
-1322.55592767219
 72
     1
 10
2852.080490041482
 20
-1322.55592767219
 11
2850.681183155998
 21
-1322.55592767219
 72
     1
 10
2850.681183155998
 20
-1322.55592767219
 11
2853.098780062433
 21
-1317.641836427772
 72
     1
 10
2853.098780062433
 20
-1317.641836427772
 11
2853.125079206282
 21
-1317.641836427772
 72
     1
 10
2853.125079206283
 20
-1317.641836427772
 11
2855.542676112719
 21
-1322.55592767219
 97
        0
 92
        1
 93
        3
 72
     1
 10
2852.671900056801
 20
-1321.058159357907
 11
2853.552279933182
 21
-1321.058159357907
 72
     1
 10
2853.552279933182
 20
-1321.058159357907
 11
2853.111929634358
 21
-1319.928258336234
 72
     1
 10
2853.111929634358
 20
-1319.928258336234
 11
2852.671900056801
 21
-1321.058159357907
 97
        0
 92
        1
 93
        1
 72
     4
 94
        3
 73
     0
 74
     0
 95
       47
 96
       43
 40
0.0
 40
0.0
 40
0.0
 40
0.0
 40
1.0
 40
1.0
 40
1.0
 40
2.0
 40
2.0
 40
2.0
 40
3.0
 40
3.0
 40
3.0
 40
4.0
 40
4.0
 40
4.0
 40
5.0
 40
5.0
 40
5.0
 40
6.0
 40
6.0
 40
6.0
 40
7.0
 40
7.0
 40
7.0
 40
8.0
 40
8.0
 40
8.0
 40
9.0
 40
9.0
 40
9.0
 40
10.0
 40
10.0
 40
10.0
 40
11.0
 40
11.0
 40
11.0
 40
12.0
 40
12.0
 40
12.0
 40
13.0
 40
13.0
 40
13.0
 40
14.0
 40
14.0
 40
14.0
 40
14.0
 10
2859.339053743587
 20
-1318.147613864951
 10
2859.339053743587
 20
-1318.147613864951
 10
2858.695366161839
 20
-1319.179053457826
 10
2858.695366161839
 20
-1319.179053457826
 10
2858.419225151433
 20
-1318.955831456383
 10
2858.071242577344
 20
-1318.778472596041
 10
2857.55872999357
 20
-1318.778472596041
 10
2857.204012272886
 20
-1318.778472596041
 10
2857.033067837872
 20
-1318.896498022091
 10
2857.033067837872
 20
-1319.12645517013
 10
2857.033067837872
 20
-1319.290985179814
 10
2857.151413985189
 20
-1319.409010605865
 10
2857.801836713533
 20
-1319.520621606587
 10
2859.109096595549
 20
-1319.790027470397
 10
2859.470549462828
 20
-1320.289390482247
 10
2859.470549462828
 20
-1321.025125067464
 10
2859.470549462828
 20
-1321.997551947315
 10
2858.760793300193
 20
-1322.641560250329
 10
2857.565144418899
 20
-1322.641560250329
 10
2856.809845836428
 20
-1322.641560250329
 10
2856.106824820389
 20
-1322.411603102291
 10
2855.613876233868
 20
-1321.977987950061
 10
2855.613876233868
 20
-1321.977987950061
 10
2856.284183680731
 20
-1320.93981321059
 10
2856.284183680731
 20
-1320.93981321059
 10
2856.593038260315
 20
-1321.281381359351
 10
2857.13152926667
 20
-1321.50492408206
 10
2857.604593134671
 20
-1321.50492408206
 10
2858.031793861571
 20
-1321.50492408206
 10
2858.222302293838
 20
-1321.380163509415
 10
2858.222302293838
 20
-1321.143471214781
 10
2858.222302293838
 20
-1320.972847501034
 10
2858.084071428001
 20
-1320.854501353717
 10
2857.433969420924
 20
-1320.7361552064
 10
2856.133123964238
 20
-1320.460334917261
 10
2855.778085522286
 20
-1319.888809620461
 10
2855.778085522286
 20
-1319.19220302975
 10
2855.778085522286
 20
-1318.311823153368
 10
2856.467956966402
 20
-1317.641836427772
 10
2857.565144418899
 20
-1317.641836427772
 10
2858.281315006863
 20
-1317.641836427772
 10
2858.931737735206
 20
-1317.832344860038
 10
2859.339053743587
 20
-1318.147613864951
 97
        0
 97
        0
 92
        1
 93
        8
 72
     1
 10
2863.89746510352
 20
-1318.824335737142
 11
2862.425995933087
 21
-1318.824335737142
 72
     1
 10
2862.425995933087
 20
-1318.824335737142
 11
2862.425995933087
 21
-1322.555927672189
 72
     1
 10
2862.425995933087
 20
-1322.55592767219
 11
2861.177748764096
 21
-1322.55592767219
 72
     1
 10
2861.177748764096
 20
-1322.55592767219
 11
2861.177748764096
 21
-1318.824335737142
 72
     1
 10
2861.177748764096
 20
-1318.824335737142
 11
2859.705958872396
 21
-1318.824335737142
 72
     1
 10
2859.705958872396
 20
-1318.824335737142
 11
2859.705958872396
 21
-1317.727148284645
 72
     1
 10
2859.705958872396
 20
-1317.727148284646
 11
2863.897465103521
 21
-1317.727148284646
 72
     1
 10
2863.89746510352
 20
-1317.727148284646
 11
2863.89746510352
 21
-1318.824335737142
 97
        0
 92
        1
 93
       12
 72
     1
 10
2867.660808443946
 20
-1318.863784452914
 11
2865.696390686991
 21
-1318.863784452914
 72
     1
 10
2865.696390686991
 20
-1318.863784452914
 11
2865.696390686991
 21
-1319.586369466207
 72
     1
 10
2865.696390686991
 20
-1319.586369466207
 11
2867.384988154806
 21
-1319.586369466207
 72
     1
 10
2867.384988154806
 20
-1319.586369466207
 11
2867.384988154806
 21
-1320.630958631007
 72
     1
 10
2867.384988154806
 20
-1320.630958631007
 11
2865.696390686991
 21
-1320.630958631007
 72
     1
 10
2865.696390686991
 20
-1320.630958631007
 11
2865.696390686991
 21
-1321.419291503921
 72
     1
 10
2865.696390686991
 20
-1321.419291503921
 11
2867.713406731642
 21
-1321.419291503921
 72
     1
 10
2867.713406731642
 20
-1321.419291503921
 11
2867.713406731642
 21
-1322.55592767219
 72
     1
 10
2867.713406731642
 20
-1322.55592767219
 11
2864.448143518
 21
-1322.55592767219
 72
     1
 10
2864.448143518
 20
-1322.55592767219
 11
2864.448143518
 21
-1317.727148284646
 72
     1
 10
2864.448143518
 20
-1317.727148284646
 11
2867.660808443946
 21
-1317.727148284646
 72
     1
 10
2867.660808443946
 20
-1317.727148284646
 11
2867.660808443946
 21
-1318.863784452915
 97
        0
 92
        1
 93
       10
 72
     1
 10
2872.410048957412
 20
-1322.641560250329
 11
2872.383749813564
 21
-1322.641560250329
 72
     1
 10
2872.383749813564
 20
-1322.641560250329
 11
2869.657298327544
 21
-1320.276240910323
 72
     1
 10
2869.657298327544
 20
-1320.276240910323
 11
2869.657298327544
 21
-1322.55592767219
 72
     1
 10
2869.657298327544
 20
-1322.55592767219
 11
2868.409051158554
 21
-1322.55592767219
 72
     1
 10
2868.409051158554
 20
-1322.55592767219
 11
2868.409051158554
 21
-1317.641836427772
 72
     1
 10
2868.409051158554
 20
-1317.641836427772
 11
2868.435350302402
 21
-1317.641836427772
 72
     1
 10
2868.435350302402
 20
-1317.641836427772
 11
2871.161801788421
 21
-1320.006835046512
 72
     1
 10
2871.161801788421
 20
-1320.006835046512
 11
2871.161801788421
 21
-1317.727148284645
 72
     1
 10
2871.161801788421
 20
-1317.727148284646
 11
2872.410048957412
 21
-1317.727148284646
 72
     1
 10
2872.410048957412
 20
-1317.727148284646
 11
2872.410048957412
 21
-1322.641560250329
 97
        0
 92
        1
 93
       12
 72
     1
 10
2876.501810874673
 20
-1318.863784452914
 11
2874.537393117718
 21
-1318.863784452914
 72
     1
 10
2874.537393117718
 20
-1318.863784452914
 11
2874.537393117718
 21
-1319.586369466207
 72
     1
 10
2874.537393117718
 20
-1319.586369466207
 11
2876.225990585533
 21
-1319.586369466207
 72
     1
 10
2876.225990585533
 20
-1319.586369466207
 11
2876.225990585533
 21
-1320.630958631007
 72
     1
 10
2876.225990585533
 20
-1320.630958631007
 11
2874.537393117718
 21
-1320.630958631007
 72
     1
 10
2874.537393117718
 20
-1320.630958631007
 11
2874.537393117718
 21
-1321.419291503921
 72
     1
 10
2874.537393117718
 20
-1321.419291503921
 11
2876.554409162369
 21
-1321.419291503921
 72
     1
 10
2876.554409162369
 20
-1321.419291503921
 11
2876.554409162369
 21
-1322.55592767219
 72
     1
 10
2876.554409162369
 20
-1322.55592767219
 11
2873.289145948728
 21
-1322.55592767219
 72
     1
 10
2873.289145948728
 20
-1322.55592767219
 11
2873.289145948728
 21
-1317.727148284646
 72
     1
 10
2873.289145948728
 20
-1317.727148284646
 11
2876.501810874673
 21
-1317.727148284646
 72
     1
 10
2876.501810874673
 20
-1317.727148284646
 11
2876.501810874673
 21
-1318.863784452915
 97
        0
 92
        1
 93
        1
 72
     4
 94
        3
 73
     0
 74
     0
 95
       35
 96
       31
 40
0.0
 40
0.0
 40
0.0
 40
0.0
 40
1.0
 40
1.0
 40
1.0
 40
2.0
 40
2.0
 40
2.0
 40
3.0
 40
3.0
 40
3.0
 40
4.0
 40
4.0
 40
4.0
 40
5.0
 40
5.0
 40
5.0
 40
6.0
 40
6.0
 40
6.0
 40
7.0
 40
7.0
 40
7.0
 40
8.0
 40
8.0
 40
8.0
 40
9.0
 40
9.0
 40
9.0
 40
10.0
 40
10.0
 40
10.0
 40
10.0
 10
2881.086842099721
 20
-1319.343262746244
 10
2881.086842099721
 20
-1320.000420621183
 10
2880.745273950961
 20
-1320.479898914513
 10
2880.26579565763
 20
-1320.7361552064
 10
2880.26579565763
 20
-1320.7361552064
 10
2881.329948819684
 20
-1322.55592767219
 10
2881.329948819684
 20
-1322.55592767219
 10
2881.329948819684
 20
-1322.55592767219
 10
2879.878043646503
 20
-1322.55592767219
 10
2879.878043646503
 20
-1322.55592767219
 10
2879.878043646503
 20
-1322.55592767219
 10
2878.95180062902
 20
-1320.952962782514
 10
2878.95180062902
 20
-1320.952962782514
 10
2878.95180062902
 20
-1320.952962782514
 10
2878.498300758272
 20
-1320.952962782514
 10
2878.498300758272
 20
-1320.952962782514
 10
2878.498300758272
 20
-1320.952962782514
 10
2878.498300758272
 20
-1322.55592767219
 10
2878.498300758272
 20
-1322.55592767219
 10
2878.498300758272
 20
-1322.55592767219
 10
2877.250053589281
 20
-1322.55592767219
 10
2877.250053589281
 20
-1322.55592767219
 10
2877.250053589281
 20
-1322.55592767219
 10
2877.250053589281
 20
-1317.727148284646
 10
2877.250053589281
 20
-1317.727148284646
 10
2877.250053589281
 20
-1317.727148284646
 10
2879.365531062729
 20
-1317.727148284646
 10
2879.365531062729
 20
-1317.727148284646
 10
2880.26579565763
 20
-1317.727148284646
 10
2881.086842099721
 20
-1318.318558299964
 10
2881.086842099721
 20
-1319.343262746244
 97
        0
 97
        0
 92
        1
 93
        1
 72
     4
 94
        3
 73
     0
 74
     0
 95
       20
 96
       16
 40
0.0
 40
0.0
 40
0.0
 40
0.0
 40
1.0
 40
1.0
 40
1.0
 40
2.0
 40
2.0
 40
2.0
 40
3.0
 40
3.0
 40
3.0
 40
4.0
 40
4.0
 40
4.0
 40
5.0
 40
5.0
 40
5.0
 40
5.0
 10
2878.498300758272
 20
-1318.798036593294
 10
2878.498300758272
 20
-1318.798036593294
 10
2878.498300758272
 20
-1319.882074473866
 10
2878.498300758272
 20
-1319.882074473866
 10
2878.498300758272
 20
-1319.882074473866
 10
2879.247505636679
 20
-1319.882074473866
 10
2879.247505636679
 20
-1319.882074473866
 10
2879.582338638844
 20
-1319.882074473866
 10
2879.819030933477
 20
-1319.685151616271
 10
2879.819030933477
 20
-1319.343262746244
 10
2879.819030933477
 20
-1319.001694597484
 10
2879.582338638844
 20
-1318.798036593294
 10
2879.247505636679
 20
-1318.798036593294
 10
2879.247505636679
 20
-1318.798036593294
 10
2878.498300758272
 20
-1318.798036593294
 10
2878.498300758272
 20
-1318.798036593294
 97
        0
 97
        0
 75
     2
 76
     1
 98
        0
450
        0
451
        0
460
0.0
461
0.0
452
        1
462
0.0
453
        0
470

  0
SPLINE
  5
14C
330
2
100
AcDbEntity
  8
Layout
370
     0
100
AcDbSpline
210
0.0
220
0.0
230
1.0
 70
     9
 71
     3
 72
    26
 73
    22
 74
     0
 42
0.000000001
 43
0.0000000001
 40
0.0
 40
0.0
 40
0.0
 40
0.0
 40
1.0
 40
1.0
 40
1.0
 40
2.0
 40
2.0
 40
2.0
 40
3.0
 40
3.0
 40
3.0
 40
4.0
 40
4.0
 40
4.0
 40
5.0
 40
5.0
 40
5.0
 40
6.0
 40
6.0
 40
6.0
 40
7.0
 40
7.0
 40
7.0
 40
7.0
 10
2885.797114974421
 20
-1319.290824819181
 30
0.0
 10
2885.797114974421
 20
-1320.28955084288
 30
0.0
 10
2885.048230817279
 20
-1320.847926567755
 30
0.0
 10
2884.10867786724
 20
-1320.847926567755
 30
0.0
 10
2884.10867786724
 20
-1320.847926567755
 30
0.0
 10
2883.136411348022
 20
-1320.847926567755
 30
0.0
 10
2883.136411348022
 20
-1320.847926567755
 30
0.0
 10
2883.136411348022
 20
-1320.847926567755
 30
0.0
 10
2883.136411348022
 20
-1322.556088032822
 30
0.0
 10
2883.136411348022
 20
-1322.556088032822
 30
0.0
 10
2883.136411348022
 20
-1322.556088032822
 30
0.0
 10
2882.315204545298
 20
-1322.556088032822
 30
0.0
 10
2882.315204545298
 20
-1322.556088032822
 30
0.0
 10
2882.315204545298
 20
-1322.556088032822
 30
0.0
 10
2882.315204545298
 20
-1317.727308645278
 30
0.0
 10
2882.315204545298
 20
-1317.727308645278
 30
0.0
 10
2882.315204545298
 20
-1317.727308645278
 30
0.0
 10
2884.10867786724
 20
-1317.727308645278
 30
0.0
 10
2884.10867786724
 20
-1317.727308645278
 30
0.0
 10
2885.041656031318
 20
-1317.727308645278
 30
0.0
 10
2885.797114974421
 20
-1318.279269944824
 30
0.0
 10
2885.797114974421
 20
-1319.290824819181
 30
0.0
  0
SPLINE
  5
14D
330
2
100
AcDbEntity
  8
Layout
370
     0
100
AcDbSpline
210
0.0
220
0.0
230
1.0
 70
    11
 71
     3
 72
    20
 73
    16
 74
     0
 42
0.000000001
 43
0.0000000001
 40
0.0
 40
0.0
 40
0.0
 40
0.0
 40
1.0
 40
1.0
 40
1.0
 40
2.0
 40
2.0
 40
2.0
 40
3.0
 40
3.0
 40
3.0
 40
4.0
 40
4.0
 40
4.0
 40
5.0
 40
5.0
 40
5.0
 40
5.0
 10
2883.136411348022
 20
-1318.443479233243
 30
0.0
 10
2883.136411348022
 20
-1318.443479233243
 30
0.0
 10
2883.136411348022
 20
-1320.131755979791
 30
0.0
 10
2883.136411348022
 20
-1320.131755979791
 30
0.0
 10
2883.136411348022
 20
-1320.131755979791
 30
0.0
 10
2884.029780435695
 20
-1320.131755979791
 30
0.0
 10
2884.029780435695
 20
-1320.131755979791
 30
0.0
 10
2884.594891307165
 20
-1320.131755979791
 30
0.0
 10
2884.962758599773
 20
-1319.842786118727
 30
0.0
 10
2884.962758599773
 20
-1319.290824819181
 30
0.0
 10
2884.962758599773
 20
-1318.739184240902
 30
0.0
 10
2884.588316521202
 20
-1318.443479233243
 30
0.0
 10
2884.029780435695
 20
-1318.443479233243
 30
0.0
 10
2884.029780435695
 20
-1318.443479233243
 30
0.0
 10
2883.136411348022
 20
-1318.443479233243
 30
0.0
 10
2883.136411348022
 20
-1318.443479233243
 30
0.0
  0
SPLINE
  5
14E
330
2
100
AcDbEntity
  8
Layout
370
     0
100
AcDbSpline
210
0.0
220
0.0
230
1.0
 70
     9
 71
     3
 72
    17
 73
    13
 74
     0
 42
0.000000001
 43
0.0000000001
 40
0.0
 40
0.0
 40
0.0
 40
0.0
 40
1.0
 40
1.0
 40
1.0
 40
2.0
 40
2.0
 40
2.0
 40
3.0
 40
3.0
 40
3.0
 40
4.0
 40
4.0
 40
4.0
 40
4.0
 10
2891.078432068914
 20
-1320.144905551715
 30
0.0
 10
2891.078432068914
 20
-1321.590396299567
 30
0.0
 10
2890.027268118151
 20
-1322.641399889696
 30
0.0
 10
2888.621226086071
 20
-1322.641399889696
 30
0.0
 10
2887.208769628663
 20
-1322.641399889696
 30
0.0
 10
2886.164180463863
 20
-1321.590396299567
 30
0.0
 10
2886.164180463863
 20
-1320.144905551715
 30
0.0
 10
2886.164180463863
 20
-1318.706149950458
 30
0.0
 10
2887.208769628663
 20
-1317.641996788405
 30
0.0
 10
2888.621226086071
 20
-1317.641996788405
 30
0.0
 10
2890.027268118151
 20
-1317.641996788405
 30
0.0
 10
2891.078432068914
 20
-1318.706149950458
 30
0.0
 10
2891.078432068914
 20
-1320.144905551715
 30
0.0
  0
SPLINE
  5
14F
330
2
100
AcDbEntity
  8
Layout
370
     0
100
AcDbSpline
210
0.0
220
0.0
230
1.0
 70
     9
 71
     3
 72
    17
 73
    13
 74
     0
 42
0.000000001
 43
0.0000000001
 40
0.0
 40
0.0
 40
0.0
 40
0.0
 40
1.0
 40
1.0
 40
1.0
 40
2.0
 40
2.0
 40
2.0
 40
3.0
 40
3.0
 40
3.0
 40
4.0
 40
4.0
 40
4.0
 40
4.0
 10
2886.998536838511
 20
-1320.144905551715
 30
0.0
 10
2886.998536838511
 20
-1321.163195572667
 30
0.0
 10
2887.66868392474
 20
-1321.886101307226
 30
0.0
 10
2888.621226086071
 20
-1321.886101307226
 30
0.0
 10
2889.567353822073
 20
-1321.886101307226
 30
0.0
 10
2890.244075694266
 20
-1321.163195572667
 30
0.0
 10
2890.244075694266
 20
-1320.144905551715
 30
0.0
 10
2890.244075694266
 20
-1319.126615530763
 30
0.0
 10
2889.567353822073
 20
-1318.397295370875
 30
0.0
 10
2888.621226086071
 20
-1318.397295370875
 30
0.0
 10
2887.66868392474
 20
-1318.397295370875
 30
0.0
 10
2886.998536838511
 20
-1319.126615530763
 30
0.0
 10
2886.998536838511
 20
-1320.144905551715
 30
0.0
  0
POLYLINE
  5
150
330
2
100
AcDbEntity
  8
Layout
370
     0
100
AcDb2dPolyline
 66
     1
 10
0.0
 20
0.0
 30
0.0
  0
VERTEX
  5
151
330
150
100
AcDbEntity
  8
Layout
370
     0
100
AcDbVertex
100
AcDb2dVertex
 10
2892.614526574535
 20
-1322.556088032822
 30
0.0
  0
VERTEX
  5
152
330
150
100
AcDbEntity
  8
Layout
370
     0
100
AcDbVertex
100
AcDb2dVertex
 10
2891.793319771812
 20
-1322.556088032822
 30
0.0
  0
VERTEX
  5
153
330
150
100
AcDbEntity
  8
Layout
370
     0
100
AcDbVertex
100
AcDb2dVertex
 10
2891.793319771812
 20
-1317.727308645278
 30
0.0
  0
VERTEX
  5
154
330
150
100
AcDbEntity
  8
Layout
370
     0
100
AcDbVertex
100
AcDb2dVertex
 10
2892.614526574535
 20
-1317.727308645278
 30
0.0
  0
VERTEX
  5
155
330
150
100
AcDbEntity
  8
Layout
370
     0
100
AcDbVertex
100
AcDb2dVertex
 10
2892.614526574535
 20
-1322.556088032822
 30
0.0
  0
SEQEND
  5
156
330
150
100
AcDbEntity
  8
Layout
370
     0
  0
HATCH
  5
157
330
2
100
AcDbEntity
  8
Layout
 62
   250
420
  1842203
100
AcDbHatch
 10
0.0
 20
0.0
 30
0.0
210
0.0
220
0.0
230
1.0
  2
SOLID
 70
     1
 71
     0
 91
        1
 92
        1
 93
        4
 72
     1
 10
2892.614526574535
 20
-1322.556088032822
 11
2891.793319771812
 21
-1322.556088032822
 72
     1
 10
2891.793319771812
 20
-1322.556088032822
 11
2891.793319771812
 21
-1317.727308645278
 72
     1
 10
2891.793319771812
 20
-1317.727308645278
 11
2892.614526574535
 21
-1317.727308645278
 72
     1
 10
2892.614526574535
 20
-1317.727308645278
 11
2892.614526574535
 21
-1322.556088032822
 97
        0
 75
     2
 76
     1
 98
        0
450
        0
451
        0
460
0.0
461
0.0
452
        1
462
0.0
453
        0
470

  0
POLYLINE
  5
158
330
2
100
AcDbEntity
  8
Layout
370
     0
100
AcDb2dPolyline
 66
     1
 10
0.0
 20
0.0
 30
0.0
  0
VERTEX
  5
159
330
158
100
AcDbEntity
  8
Layout
370
     0
100
AcDbVertex
100
AcDb2dVertex
 10
2897.429675308255
 20
-1322.641399889696
 30
0.0
  0
VERTEX
  5
15A
330
158
100
AcDbEntity
  8
Layout
370
     0
100
AcDbVertex
100
AcDb2dVertex
 10
2897.403376164407
 20
-1322.641399889696
 30
0.0
  0
VERTEX
  5
15B
330
158
100
AcDbEntity
  8
Layout
370
     0
100
AcDbVertex
100
AcDb2dVertex
 10
2894.460117102273
 20
-1319.560230682992
 30
0.0
  0
VERTEX
  5
15C
330
158
100
AcDbEntity
  8
Layout
370
     0
100
AcDbVertex
100
AcDb2dVertex
 10
2894.460117102273
 20
-1322.556088032822
 30
0.0
  0
VERTEX
  5
15D
330
158
100
AcDbEntity
  8
Layout
370
     0
100
AcDbVertex
100
AcDb2dVertex
 10
2893.63891029955
 20
-1322.556088032822
 30
0.0
  0
VERTEX
  5
15E
330
158
100
AcDbEntity
  8
Layout
370
     0
100
AcDbVertex
100
AcDb2dVertex
 10
2893.63891029955
 20
-1317.641996788405
 30
0.0
  0
VERTEX
  5
15F
330
158
100
AcDbEntity
  8
Layout
370
     0
100
AcDbVertex
100
AcDb2dVertex
 10
2893.665049082764
 20
-1317.641996788405
 30
0.0
  0
VERTEX
  5
160
330
158
100
AcDbEntity
  8
Layout
370
     0
100
AcDbVertex
100
AcDb2dVertex
 10
2896.608308144899
 20
-1320.716430848514
 30
0.0
  0
VERTEX
  5
161
330
158
100
AcDbEntity
  8
Layout
370
     0
100
AcDbVertex
100
AcDb2dVertex
 10
2896.608308144899
 20
-1317.727308645278
 30
0.0
  0
VERTEX
  5
162
330
158
100
AcDbEntity
  8
Layout
370
     0
100
AcDbVertex
100
AcDb2dVertex
 10
2897.429675308255
 20
-1317.727308645278
 30
0.0
  0
VERTEX
  5
163
330
158
100
AcDbEntity
  8
Layout
370
     0
100
AcDbVertex
100
AcDb2dVertex
 10
2897.429675308255
 20
-1322.641399889696
 30
0.0
  0
SEQEND
  5
164
330
158
100
AcDbEntity
  8
Layout
370
     0
  0
HATCH
  5
165
330
2
100
AcDbEntity
  8
Layout
 62
   250
420
  1842203
100
AcDbHatch
 10
0.0
 20
0.0
 30
0.0
210
0.0
220
0.0
230
1.0
  2
SOLID
 70
     1
 71
     0
 91
        1
 92
        1
 93
       10
 72
     1
 10
2897.429675308255
 20
-1322.641399889696
 11
2897.403376164407
 21
-1322.641399889696
 72
     1
 10
2897.403376164407
 20
-1322.641399889696
 11
2894.460117102273
 21
-1319.560230682992
 72
     1
 10
2894.460117102273
 20
-1319.560230682992
 11
2894.460117102273
 21
-1322.556088032822
 72
     1
 10
2894.460117102273
 20
-1322.556088032822
 11
2893.63891029955
 21
-1322.556088032822
 72
     1
 10
2893.63891029955
 20
-1322.556088032822
 11
2893.63891029955
 21
-1317.641996788405
 72
     1
 10
2893.63891029955
 20
-1317.641996788405
 11
2893.665049082764
 21
-1317.641996788405
 72
     1
 10
2893.665049082764
 20
-1317.641996788405
 11
2896.608308144898
 21
-1320.716430848514
 72
     1
 10
2896.608308144899
 20
-1320.716430848514
 11
2896.608308144899
 21
-1317.727308645278
 72
     1
 10
2896.608308144899
 20
-1317.727308645278
 11
2897.429675308256
 21
-1317.727308645278
 72
     1
 10
2897.429675308255
 20
-1317.727308645278
 11
2897.429675308255
 21
-1322.641399889696
 97
        0
 75
     2
 76
     1
 98
        0
450
        0
451
        0
460
0.0
461
0.0
452
        1
462
0.0
453
        0
470

  0
POLYLINE
  5
166
330
2
100
AcDbEntity
  8
Layout
370
     0
100
AcDb2dPolyline
 66
     1
 10
0.0
 20
0.0
 30
0.0
  0
VERTEX
  5
167
330
166
100
AcDbEntity
  8
Layout
370
     0
100
AcDbVertex
100
AcDb2dVertex
 10
2902.139146384682
 20
-1318.456628805167
 30
0.0
  0
VERTEX
  5
168
330
166
100
AcDbEntity
  8
Layout
370
     0
100
AcDbVertex
100
AcDb2dVertex
 10
2900.503307565197
 20
-1318.456628805167
 30
0.0
  0
VERTEX
  5
169
330
166
100
AcDbEntity
  8
Layout
370
     0
100
AcDbVertex
100
AcDb2dVertex
 10
2900.503307565197
 20
-1322.556088032822
 30
0.0
  0
VERTEX
  5
16A
330
166
100
AcDbEntity
  8
Layout
370
     0
100
AcDbVertex
100
AcDb2dVertex
 10
2899.682100762474
 20
-1322.556088032822
 30
0.0
  0
VERTEX
  5
16B
330
166
100
AcDbEntity
  8
Layout
370
     0
100
AcDbVertex
100
AcDb2dVertex
 10
2899.682100762474
 20
-1318.456628805167
 30
0.0
  0
VERTEX
  5
16C
330
166
100
AcDbEntity
  8
Layout
370
     0
100
AcDbVertex
100
AcDb2dVertex
 10
2898.046261942989
 20
-1318.456628805167
 30
0.0
  0
VERTEX
  5
16D
330
166
100
AcDbEntity
  8
Layout
370
     0
100
AcDbVertex
100
AcDb2dVertex
 10
2898.046261942989
 20
-1317.727308645278
 30
0.0
  0
VERTEX
  5
16E
330
166
100
AcDbEntity
  8
Layout
370
     0
100
AcDbVertex
100
AcDb2dVertex
 10
2902.139146384682
 20
-1317.727308645278
 30
0.0
  0
VERTEX
  5
16F
330
166
100
AcDbEntity
  8
Layout
370
     0
100
AcDbVertex
100
AcDb2dVertex
 10
2902.139146384682
 20
-1318.456628805167
 30
0.0
  0
SEQEND
  5
170
330
166
100
AcDbEntity
  8
Layout
370
     0
  0
HATCH
  5
171
330
2
100
AcDbEntity
  8
Layout
 62
   250
420
  1842203
100
AcDbHatch
 10
0.0
 20
0.0
 30
0.0
210
0.0
220
0.0
230
1.0
  2
SOLID
 70
     1
 71
     0
 91
        1
 92
        1
 93
        8
 72
     1
 10
2902.139146384682
 20
-1318.456628805167
 11
2900.503307565197
 21
-1318.456628805167
 72
     1
 10
2900.503307565197
 20
-1318.456628805167
 11
2900.503307565197
 21
-1322.556088032822
 72
     1
 10
2900.503307565197
 20
-1322.556088032822
 11
2899.682100762474
 21
-1322.556088032822
 72
     1
 10
2899.682100762474
 20
-1322.556088032822
 11
2899.682100762474
 21
-1318.456628805167
 72
     1
 10
2899.682100762474
 20
-1318.456628805167
 11
2898.046261942989
 21
-1318.456628805167
 72
     1
 10
2898.046261942989
 20
-1318.456628805167
 11
2898.046261942989
 21
-1317.727308645278
 72
     1
 10
2898.046261942989
 20
-1317.727308645278
 11
2902.139146384682
 21
-1317.727308645278
 72
     1
 10
2902.139146384682
 20
-1317.727308645278
 11
2902.139146384682
 21
-1318.456628805167
 97
        0
 75
     2
 76
     1
 98
        0
450
        0
451
        0
460
0.0
461
0.0
452
        1
462
0.0
453
        0
470

  0
TEXT
  5
172
330
2
100
AcDbEntity
  8
Layout
100
AcDbText
 10
2864.957802198832
 20
-1331.255594024682
 30
0.0
 40
1.05
  1
 T: +31 (0)318-461 650
  7
ROMANS
100
AcDbText
  0
TEXT
  5
173
330
2
100
AcDbEntity
  8
Layout
100
AcDbText
 10
2863.633101282544
 20
-1333.214721884215
 30
0.0
 40
1.05
  1
 WWW.SCHROEVENBESTELLEN.NL
  7
ROMANS
100
AcDbText
  0
LINE
  5
174
330
2
100
AcDbEntity
  8
Fastener
100
AcDbLine
 10
2811.812988689956
 20
-1191.332051032711
 30
0.0
 11
2811.812988689956
 21
-1194.571138397963
 31
0.0
  0
LINE
  5
178
330
2
100
AcDbEntity
  8
Fastener
100
AcDbLine
 10
2794.244386720913
 20
-1192.773248786726
 30
0.0
 11
2814.737531180551
 21
-1188.789785031458
 31
0.0
  0
LINE
  5
179
330
2
100
AcDbEntity
  8
Fastener
100
AcDbLine
 10
2794.244386720913
 20
-1192.773248786726
 30
0.0
 11
2797.168929211508
 21
-1190.230982785472
 31
0.0
  0
LINE
  5
17A
330
2
100
AcDbEntity
  8
Fastener
100
AcDbLine
 10
2811.812988689957
 20
-1191.332051032711
 30
0.0
 11
2797.168929211508
 21
-1193.780249522476
 31
0.0
  0
LINE
  5
17B
330
2
100
AcDbEntity
  8
Fastener
100
AcDbLine
 10
2794.244386720913
 20
-1185.984894684471
 30
0.0
 11
2794.653379245682
 21
-1185.905394591071
 31
0.0
  0
LINE
  5
17C
330
2
100
AcDbEntity
  8
Fastener
100
AcDbLine
 10
2811.812988689957
 20
-1187.782784295706
 30
0.0
 11
2797.168929211508
 21
-1190.230982785472
 31
0.0
  0
LINE
  5
17D
330
2
100
AcDbEntity
  8
Fastener
100
AcDbLine
 10
2803.667905022487
 20
-1185.905394591071
 30
0.0
 11
2797.168929211508
 21
-1186.991895420221
 31
0.0
  0
LINE
  5
17E
330
2
100
AcDbEntity
  8
Fastener
100
AcDbLine
 10
2794.244386720914
 20
-1185.984894684471
 30
0.0
 11
2797.168929211508
 21
-1186.991895420221
 31
0.0
  0
LINE
  5
17F
330
2
100
AcDbEntity
  8
Fastener
100
AcDbLine
 10
2794.244386720913
 20
-1185.984894684471
 30
0.0
 11
2794.335841116731
 21
-1185.905394591071
 31
0.0
  0
LINE
  5
180
330
2
100
AcDbEntity
  8
Fastener
100
AcDbLine
 10
2797.168929211508
 20
-1186.991895420221
 30
0.0
 11
2797.168929211508
 21
-1190.230982785472
 31
0.0
  0
LINE
  5
181
330
2
100
AcDbEntity
  8
Fastener
100
AcDbLine
 10
2811.812988689956
 20
-1185.905394591071
 30
0.0
 11
2811.812988689956
 21
-1187.782784295706
 31
0.0
  0
LINE
  5
182
330
2
100
AcDbEntity
  8
Fastener
100
AcDbLine
 10
2814.737531180551
 20
-1188.789785031458
 30
0.0
 11
2811.812988689957
 21
-1191.332051032711
 31
0.0
  0
LINE
  5
183
330
2
100
AcDbEntity
  8
Fastener
100
AcDbLine
 10
2814.737531180551
 20
-1188.789785031458
 30
0.0
 11
2811.812988689956
 21
-1187.782784295706
 31
0.0
  0
LINE
  5
184
330
2
100
AcDbEntity
  8
Fastener
100
AcDbLine
 10
2794.244386720913
 20
-1206.349956991235
 30
0.0
 11
2814.737531180549
 21
-1202.366493235967
 31
0.0
  0
LINE
  5
185
330
2
100
AcDbEntity
  8
Fastener
100
AcDbLine
 10
2811.812988689956
 20
-1201.359492500217
 30
0.0
 11
2797.168929211507
 21
-1203.807690989982
 31
0.0
  0
LINE
  5
186
330
2
100
AcDbEntity
  8
Fastener
100
AcDbLine
 10
2794.244386720913
 20
-1199.561602888981
 30
0.0
 11
2814.737531180551
 21
-1195.578139133713
 31
0.0
  0
LINE
  5
187
330
2
100
AcDbEntity
  8
Fastener
100
AcDbLine
 10
2811.812988689957
 20
-1198.120405134966
 30
0.0
 11
2797.168929211508
 21
-1200.568603624731
 31
0.0
  0
LINE
  5
188
330
2
100
AcDbEntity
  8
Fastener
100
AcDbLine
 10
2811.812988689957
 20
-1194.571138397963
 30
0.0
 11
2797.168929211508
 21
-1197.019336887727
 31
0.0
  0
LINE
  5
189
330
2
100
AcDbEntity
  8
Fastener
100
AcDbLine
 10
2811.812988689957
 20
-1221.724554806982
 30
0.0
 11
2797.168929211508
 21
-1224.172753296746
 31
0.0
  0
LINE
  5
18A
330
2
100
AcDbEntity
  8
Fastener
100
AcDbLine
 10
2794.244386720914
 20
-1219.926665195745
 30
0.0
 11
2814.737531180551
 21
-1215.943201440477
 31
0.0
  0
LINE
  5
18B
330
2
100
AcDbEntity
  8
Fastener
100
AcDbLine
 10
2811.812988689957
 20
-1218.485467441731
 30
0.0
 11
2797.168929211508
 21
-1220.933665931495
 31
0.0
  0
LINE
  5
18C
330
2
100
AcDbEntity
  8
Fastener
100
AcDbLine
 10
2811.812988689957
 20
-1214.936200704725
 30
0.0
 11
2797.168929211508
 21
-1217.384399194491
 31
0.0
  0
LINE
  5
18D
330
2
100
AcDbEntity
  8
Fastener
100
AcDbLine
 10
2794.244386720913
 20
-1213.138311093488
 30
0.0
 11
2814.737531180551
 21
-1209.154847338222
 31
0.0
  0
LINE
  5
18E
330
2
100
AcDbEntity
  8
Fastener
100
AcDbLine
 10
2811.812988689957
 20
-1211.697113339476
 30
0.0
 11
2797.168929211508
 21
-1214.14531182924
 31
0.0
  0
LINE
  5
18F
330
2
100
AcDbEntity
  8
Fastener
100
AcDbLine
 10
2811.812988689957
 20
-1208.147846602472
 30
0.0
 11
2797.168929211508
 21
-1210.596045092237
 31
0.0
  0
LINE
  5
190
330
2
100
AcDbEntity
  8
Fastener
100
AcDbLine
 10
2811.812988689956
 20
-1204.908759237221
 30
0.0
 11
2797.168929211507
 21
-1207.356957726985
 31
0.0
  0
LINE
  5
191
330
2
100
AcDbEntity
  8
Fastener
100
AcDbLine
 10
2794.244386720913
 20
-1240.291727502507
 30
0.0
 11
2814.737531180551
 21
-1236.308263747241
 31
0.0
  0
LINE
  5
192
330
2
100
AcDbEntity
  8
Fastener
100
AcDbLine
 10
2811.812988689957
 20
-1238.850529748493
 30
0.0
 11
2797.168929211508
 21
-1241.298728238259
 31
0.0
  0
LINE
  5
193
330
2
100
AcDbEntity
  8
Fastener
100
AcDbLine
 10
2811.812988689957
 20
-1235.301263011489
 30
0.0
 11
2797.168929211508
 21
-1237.749461501256
 31
0.0
  0
LINE
  5
194
330
2
100
AcDbEntity
  8
Fastener
100
AcDbLine
 10
2794.244386720914
 20
-1233.503373400254
 30
0.0
 11
2814.737531180551
 21
-1229.519909644986
 31
0.0
  0
LINE
  5
195
330
2
100
AcDbEntity
  8
Fastener
100
AcDbLine
 10
2811.812988689957
 20
-1232.06217564624
 30
0.0
 11
2797.168929211508
 21
-1234.510374136004
 31
0.0
  0
LINE
  5
196
330
2
100
AcDbEntity
  8
Fastener
100
AcDbLine
 10
2811.812988689957
 20
-1228.512908909235
 30
0.0
 11
2797.168929211508
 21
-1230.961107398999
 31
0.0
  0
LINE
  5
197
330
2
100
AcDbEntity
  8
Fastener
100
AcDbLine
 10
2794.244386720913
 20
-1226.715019298
 30
0.0
 11
2814.737531180551
 21
-1222.731555542732
 31
0.0
  0
LINE
  5
198
330
2
100
AcDbEntity
  8
Fastener
100
AcDbLine
 10
2811.812988689957
 20
-1225.273821543985
 30
0.0
 11
2797.168929211508
 21
-1227.722020033749
 31
0.0
  0
LINE
  5
199
330
2
100
AcDbEntity
  8
Fastener
100
AcDbLine
 10
2804.490958950731
 20
-1283.545540593551
 30
0.0
 11
2797.168929211507
 21
-1278.41860017515
 31
0.0
  0
LINE
  5
19A
330
2
100
AcDbEntity
  8
Fastener
100
AcDbLine
 10
2811.812988689956
 20
-1259.215592055257
 30
0.0
 11
2797.168929211508
 21
-1261.663790545023
 31
0.0
  0
LINE
  5
19B
330
2
100
AcDbEntity
  8
Fastener
100
AcDbLine
 10
2794.244386720913
 20
-1260.656789809271
 30
0.0
 11
2814.737531180549
 21
-1256.673326054003
 31
0.0
  0
LINE
  5
19C
330
2
100
AcDbEntity
  8
Fastener
100
AcDbLine
 10
2811.812988689956
 20
-1242.089617113744
 30
0.0
 11
2797.168929211508
 21
-1244.537815603508
 31
0.0
  0
LINE
  5
19D
330
2
100
AcDbEntity
  8
Fastener
100
AcDbLine
 10
2811.812988689956
 20
-1245.638883850749
 30
0.0
 11
2797.168929211508
 21
-1248.087082340514
 31
0.0
  0
LINE
  5
19E
330
2
100
AcDbEntity
  8
Fastener
100
AcDbLine
 10
2794.244386720913
 20
-1247.080081604762
 30
0.0
 11
2814.737531180549
 21
-1243.096617849494
 31
0.0
  0
LINE
  5
19F
330
2
100
AcDbEntity
  8
Fastener
100
AcDbLine
 10
2811.812988689956
 20
-1248.877971215999
 30
0.0
 11
2797.168929211507
 21
-1251.326169705763
 31
0.0
  0
LINE
  5
1A0
330
2
100
AcDbEntity
  8
Fastener
100
AcDbLine
 10
2811.812988689956
 20
-1252.427237953002
 30
0.0
 11
2797.168929211507
 21
-1254.875436442768
 31
0.0
  0
LINE
  5
1A1
330
2
100
AcDbEntity
  8
Fastener
100
AcDbLine
 10
2794.244386720912
 20
-1253.868435707017
 30
0.0
 11
2814.737531180549
 21
-1249.884971951751
 31
0.0
  0
LINE
  5
1A2
330
2
100
AcDbEntity
  8
Fastener
100
AcDbLine
 10
2811.812988689956
 20
-1255.666325318254
 30
0.0
 11
2797.168929211508
 21
-1258.114523808018
 31
0.0
  0
LINE
  5
1A3
330
2
100
AcDbEntity
  8
Fastener
100
AcDbLine
 10
2795.897917713274
 20
-1264.759473170144
 30
0.0
 11
2809.403088136131
 21
-1262.134333968393
 31
0.0
  0
LINE
  5
1A4
330
2
100
AcDbEntity
  8
Fastener
100
AcDbLine
 10
2798.193586434488
 20
-1279.136072886763
 30
0.0
 11
2803.713450823462
 21
-1279.136072886763
 31
0.0
  0
LINE
  5
1A5
330
2
100
AcDbEntity
  8
Fastener
100
AcDbLine
 10
2796.101577937567
 20
-1265.807214194931
 30
0.0
 11
2809.013896600148
 21
-1263.297313701614
 31
0.0
  0
DIMENSION
  5
1A6
330
2
100
AcDbEntity
  8
Dimension
 62
     1
100
AcDbDimension
280
     0
  2
*D0
 10
2782.842349903447
 20
-1265.599742124344
 30
0.0
 11
2782.842349903447
 21
-1250.333075457676
 31
0.0
 70
   128
  1
6.75\H0.6x;\S+0.25^ -0.25
 71
     5
 42
17.9457984692076
 73
     0
 74
     0
 75
     0
  3
FP
100
AcDbAlignedDimension
 13
2804.490958950731
 23
-1283.545540593551
 33
0.0
 14
2797.168929211507
 24
-1265.599742124344
 34
0.0
 50
270.0
100
AcDbRotatedDimension
  0
DIMENSION
  5
1B6
330
2
100
AcDbEntity
  8
Dimension
 62
     1
100
AcDbDimension
280
     0
  2
*D1
 10
2797.168929211507
 20
-1302.702253648064
 30
0.0
 11
2780.643929211507
 21
-1302.702253648064
 31
0.0
 70
   128
  1
4.0\H0.6x;\S+0.1^ -0.0
 71
     5
 42
14.64405947844898
 73
     0
 74
     0
 75
     0
  3
FP
100
AcDbAlignedDimension
 13
2811.812988689956
 23
-1278.418600175151
 33
0.0
 14
2797.168929211507
 24
-1278.41860017515
 34
0.0
100
AcDbRotatedDimension
  0
DIMENSION
  5
1C4
330
2
100
AcDbEntity
  8
Dimension
 62
     1
100
AcDbDimension
280
     0
  2
*D2
 10
2793.971527712517
 20
-1317.232015461621
 30
0.0
 11
2781.10486104585
 21
-1317.232015461621
 31
0.0
 70
   128
  1
4.8\H0.6x;\S+0.0^ -0.18
 71
     5
 42
20.76600346803298
 73
     0
 74
     0
 75
     0
  3
FP
100
AcDbAlignedDimension
 13
2814.737531180549
 23
-1256.673326054003
 33
0.0
 14
2793.971527712517
 24
-1260.342901426386
 34
0.0
100
AcDbRotatedDimension
  0
LINE
  5
1D2
330
2
100
AcDbEntity
  8
Fastener
100
AcDbLine
 10
2797.168929211508
 20
-1241.298728238257
 30
0.0
 11
2797.168929211508
 21
-1244.53781560351
 31
0.0
  0
LINE
  5
1D3
330
2
100
AcDbEntity
  8
Fastener
100
AcDbLine
 10
2794.244386720914
 20
-1219.926665195745
 30
0.0
 11
2797.168929211508
 21
-1217.384399194491
 31
0.0
  0
LINE
  5
1D4
330
2
100
AcDbEntity
  8
Fastener
100
AcDbLine
 10
2794.244386720913
 20
-1206.349956991235
 30
0.0
 11
2797.168929211507
 21
-1203.807690989982
 31
0.0
  0
LINE
  5
1D5
330
2
100
AcDbEntity
  8
Fastener
100
AcDbLine
 10
2794.244386720913
 20
-1199.561602888981
 30
0.0
 11
2797.168929211508
 21
-1197.019336887727
 31
0.0
  0
LINE
  5
1D6
330
2
100
AcDbEntity
  8
Fastener
100
AcDbLine
 10
2794.244386720914
 20
-1192.773248786726
 30
0.0
 11
2797.168929211508
 21
-1193.780249522476
 31
0.0
  0
LINE
  5
1D7
330
2
100
AcDbEntity
  8
Fastener
100
AcDbLine
 10
2797.168929211508
 20
-1193.780249522476
 30
0.0
 11
2797.168929211508
 21
-1197.019336887727
 31
0.0
  0
LINE
  5
1D8
330
2
100
AcDbEntity
  8
Fastener
100
AcDbLine
 10
2794.244386720914
 20
-1199.561602888981
 30
0.0
 11
2797.168929211508
 21
-1200.568603624731
 31
0.0
  0
LINE
  5
1D9
330
2
100
AcDbEntity
  8
Fastener
100
AcDbLine
 10
2797.168929211508
 20
-1200.568603624731
 30
0.0
 11
2797.168929211508
 21
-1203.807690989982
 31
0.0
  0
LINE
  5
1DA
330
2
100
AcDbEntity
  8
Fastener
100
AcDbLine
 10
2794.244386720913
 20
-1213.138311093488
 30
0.0
 11
2797.168929211508
 21
-1210.596045092237
 31
0.0
  0
LINE
  5
1DB
330
2
100
AcDbEntity
  8
Fastener
100
AcDbLine
 10
2794.244386720913
 20
-1206.349956991235
 30
0.0
 11
2797.168929211507
 21
-1207.356957726985
 31
0.0
  0
LINE
  5
1DC
330
2
100
AcDbEntity
  8
Fastener
100
AcDbLine
 10
2797.168929211508
 20
-1207.356957726985
 30
0.0
 11
2797.168929211508
 21
-1210.596045092237
 31
0.0
  0
LINE
  5
1DD
330
2
100
AcDbEntity
  8
Fastener
100
AcDbLine
 10
2794.244386720914
 20
-1213.138311093488
 30
0.0
 11
2797.168929211508
 21
-1214.14531182924
 31
0.0
  0
LINE
  5
1DE
330
2
100
AcDbEntity
  8
Fastener
100
AcDbLine
 10
2797.168929211508
 20
-1214.14531182924
 30
0.0
 11
2797.168929211508
 21
-1217.384399194491
 31
0.0
  0
LINE
  5
1DF
330
2
100
AcDbEntity
  8
Fastener
100
AcDbLine
 10
2797.168929211508
 20
-1227.722020033749
 30
0.0
 11
2797.168929211508
 21
-1230.961107398999
 31
0.0
  0
LINE
  5
1E0
330
2
100
AcDbEntity
  8
Fastener
100
AcDbLine
 10
2797.168929211508
 20
-1220.933665931495
 30
0.0
 11
2797.168929211508
 21
-1224.172753296746
 31
0.0
  0
LINE
  5
1E1
330
2
100
AcDbEntity
  8
Fastener
100
AcDbLine
 10
2794.244386720914
 20
-1219.926665195745
 30
0.0
 11
2797.168929211508
 21
-1220.933665931495
 31
0.0
  0
LINE
  5
1E2
330
2
100
AcDbEntity
  8
Fastener
100
AcDbLine
 10
2794.244386720913
 20
-1226.715019298
 30
0.0
 11
2797.168929211508
 21
-1224.172753296746
 31
0.0
  0
LINE
  5
1E3
330
2
100
AcDbEntity
  8
Fastener
100
AcDbLine
 10
2794.244386720914
 20
-1226.715019298
 30
0.0
 11
2797.168929211508
 21
-1227.722020033749
 31
0.0
  0
LINE
  5
1E4
330
2
100
AcDbEntity
  8
Fastener
100
AcDbLine
 10
2797.168929211508
 20
-1234.510374136004
 30
0.0
 11
2797.168929211508
 21
-1237.749461501254
 31
0.0
  0
LINE
  5
1E5
330
2
100
AcDbEntity
  8
Fastener
100
AcDbLine
 10
2794.244386720914
 20
-1233.503373400254
 30
0.0
 11
2797.168929211508
 21
-1230.961107398999
 31
0.0
  0
LINE
  5
1E6
330
2
100
AcDbEntity
  8
Fastener
100
AcDbLine
 10
2794.244386720914
 20
-1233.503373400252
 30
0.0
 11
2797.168929211508
 21
-1234.510374136004
 31
0.0
  0
LINE
  5
1E7
330
2
100
AcDbEntity
  8
Fastener
100
AcDbLine
 10
2794.244386720913
 20
-1240.291727502507
 30
0.0
 11
2797.168929211508
 21
-1237.749461501256
 31
0.0
  0
LINE
  5
1E8
330
2
100
AcDbEntity
  8
Fastener
100
AcDbLine
 10
2794.244386720914
 20
-1240.291727502507
 30
0.0
 11
2797.168929211508
 21
-1241.298728238257
 31
0.0
  0
LINE
  5
1E9
330
2
100
AcDbEntity
  8
Fastener
100
AcDbLine
 10
2797.168929211507
 20
-1266.467920210521
 30
0.0
 11
2797.168929211507
 21
-1278.41860017515
 31
0.0
  0
LINE
  5
1EA
330
2
100
AcDbEntity
  8
Fastener
100
AcDbLine
 10
2794.244386720913
 20
-1253.868435707017
 30
0.0
 11
2797.168929211507
 21
-1254.875436442768
 31
0.0
  0
LINE
  5
1EB
330
2
100
AcDbEntity
  8
Fastener
100
AcDbLine
 10
2797.168929211507
 20
-1248.087082340514
 30
0.0
 11
2797.168929211507
 21
-1251.326169705763
 31
0.0
  0
LINE
  5
1EC
330
2
100
AcDbEntity
  8
Fastener
100
AcDbLine
 10
2794.244386720913
 20
-1247.080081604762
 30
0.0
 11
2797.168929211507
 21
-1248.087082340514
 31
0.0
  0
LINE
  5
1ED
330
2
100
AcDbEntity
  8
Fastener
100
AcDbLine
 10
2794.244386720913
 20
-1247.080081604762
 30
0.0
 11
2797.168929211507
 21
-1244.537815603508
 31
0.0
  0
LINE
  5
1EE
330
2
100
AcDbEntity
  8
Fastener
100
AcDbLine
 10
2794.244386720912
 20
-1253.868435707017
 30
0.0
 11
2797.168929211507
 21
-1251.326169705763
 31
0.0
  0
LINE
  5
1EF
330
2
100
AcDbEntity
  8
Fastener
100
AcDbLine
 10
2794.244386720913
 20
-1260.656789809271
 30
0.0
 11
2797.168929211507
 21
-1261.663790545022
 31
0.0
  0
LINE
  5
1F0
330
2
100
AcDbEntity
  8
Fastener
100
AcDbLine
 10
2794.244386720913
 20
-1260.656789809271
 30
0.0
 11
2797.168929211507
 21
-1258.114523808018
 31
0.0
  0
LINE
  5
1F1
330
2
100
AcDbEntity
  8
Fastener
100
AcDbLine
 10
2797.168929211507
 20
-1254.875436442768
 30
0.0
 11
2797.168929211507
 21
-1258.114523808018
 31
0.0
  0
ARC
  5
1F2
330
2
100
AcDbEntity
  8
Fastener
100
AcDbCircle
 10
2795.999747825421
 20
-1265.283343682537
 30
0.0
 40
0.5336756369696137
100
AcDbArc
 50
101.0000000000123
 51
281.0000000000123
  0
LINE
  5
1F3
330
2
100
AcDbEntity
  8
Fastener
100
AcDbLine
 10
2797.168929211507
 20
-1261.663790545023
 30
0.0
 11
2797.168929211507
 21
-1264.5124135622
 31
0.0
  0
LINE
  5
1F4
330
2
100
AcDbEntity
  8
Fastener
100
AcDbLine
 10
2797.168929211507
 20
-1265.599742124344
 30
0.0
 11
2797.168929211507
 21
-1266.467920210521
 31
0.0
  0
LINE
  5
1F5
330
2
100
AcDbEntity
  8
Fastener
100
AcDbLine
 10
2814.737531180549
 20
-1243.096617849494
 30
0.0
 11
2811.812988689956
 21
-1242.089617113744
 31
0.0
  0
LINE
  5
1F6
330
2
100
AcDbEntity
  8
Fastener
100
AcDbLine
 10
2814.737531180551
 20
-1215.943201440477
 30
0.0
 11
2811.812988689957
 21
-1218.485467441731
 31
0.0
  0
LINE
  5
1F7
330
2
100
AcDbEntity
  8
Fastener
100
AcDbLine
 10
2811.812988689956
 20
-1204.908759237221
 30
0.0
 11
2811.812988689956
 21
-1208.14784660247
 31
0.0
  0
LINE
  5
1F8
330
2
100
AcDbEntity
  8
Fastener
100
AcDbLine
 10
2811.812988689956
 20
-1198.120405134966
 30
0.0
 11
2811.812988689956
 21
-1201.359492500217
 31
0.0
  0
LINE
  5
1F9
330
2
100
AcDbEntity
  8
Fastener
100
AcDbLine
 10
2814.737531180551
 20
-1195.578139133713
 30
0.0
 11
2811.812988689957
 21
-1198.120405134966
 31
0.0
  0
LINE
  5
1FA
330
2
100
AcDbEntity
  8
Fastener
100
AcDbLine
 10
2814.737531180551
 20
-1195.578139133713
 30
0.0
 11
2811.812988689956
 21
-1194.571138397963
 31
0.0
  0
LINE
  5
1FB
330
2
100
AcDbEntity
  8
Fastener
100
AcDbLine
 10
2814.737531180549
 20
-1202.366493235967
 30
0.0
 11
2811.812988689956
 21
-1204.908759237221
 31
0.0
  0
LINE
  5
1FC
330
2
100
AcDbEntity
  8
Fastener
100
AcDbLine
 10
2814.737531180549
 20
-1202.366493235967
 30
0.0
 11
2811.812988689956
 21
-1201.359492500217
 31
0.0
  0
LINE
  5
1FD
330
2
100
AcDbEntity
  8
Fastener
100
AcDbLine
 10
2814.737531180551
 20
-1209.154847338222
 30
0.0
 11
2811.812988689957
 21
-1211.697113339476
 31
0.0
  0
LINE
  5
1FE
330
2
100
AcDbEntity
  8
Fastener
100
AcDbLine
 10
2814.737531180551
 20
-1209.154847338222
 30
0.0
 11
2811.812988689956
 21
-1208.147846602472
 31
0.0
  0
LINE
  5
1FF
330
2
100
AcDbEntity
  8
Fastener
100
AcDbLine
 10
2814.737531180551
 20
-1215.943201440477
 30
0.0
 11
2811.812988689957
 21
-1214.936200704725
 31
0.0
  0
LINE
  5
200
330
2
100
AcDbEntity
  8
Fastener
100
AcDbLine
 10
2811.812988689956
 20
-1211.697113339476
 30
0.0
 11
2811.812988689956
 21
-1214.936200704725
 31
0.0
  0
LINE
  5
201
330
2
100
AcDbEntity
  8
Fastener
100
AcDbLine
 10
2814.737531180551
 20
-1229.519909644986
 30
0.0
 11
2811.812988689957
 21
-1232.06217564624
 31
0.0
  0
LINE
  5
202
330
2
100
AcDbEntity
  8
Fastener
100
AcDbLine
 10
2814.737531180551
 20
-1222.731555542732
 30
0.0
 11
2811.812988689957
 21
-1225.273821543985
 31
0.0
  0
LINE
  5
203
330
2
100
AcDbEntity
  8
Fastener
100
AcDbLine
 10
2814.737531180551
 20
-1222.731555542732
 30
0.0
 11
2811.812988689956
 21
-1221.724554806982
 31
0.0
  0
LINE
  5
204
330
2
100
AcDbEntity
  8
Fastener
100
AcDbLine
 10
2811.812988689956
 20
-1218.485467441731
 30
0.0
 11
2811.812988689956
 21
-1221.724554806982
 31
0.0
  0
LINE
  5
205
330
2
100
AcDbEntity
  8
Fastener
100
AcDbLine
 10
2814.737531180551
 20
-1229.519909644986
 30
0.0
 11
2811.812988689957
 21
-1228.512908909235
 31
0.0
  0
LINE
  5
206
330
2
100
AcDbEntity
  8
Fastener
100
AcDbLine
 10
2811.812988689956
 20
-1225.273821543985
 30
0.0
 11
2811.812988689956
 21
-1228.512908909235
 31
0.0
  0
LINE
  5
207
330
2
100
AcDbEntity
  8
Fastener
100
AcDbLine
 10
2814.737531180551
 20
-1236.308263747241
 30
0.0
 11
2811.812988689956
 21
-1235.301263011489
 31
0.0
  0
LINE
  5
208
330
2
100
AcDbEntity
  8
Fastener
100
AcDbLine
 10
2811.812988689956
 20
-1232.06217564624
 30
0.0
 11
2811.812988689956
 21
-1235.301263011489
 31
0.0
  0
LINE
  5
209
330
2
100
AcDbEntity
  8
Fastener
100
AcDbLine
 10
2814.737531180551
 20
-1236.308263747241
 30
0.0
 11
2811.812988689957
 21
-1238.850529748493
 31
0.0
  0
LINE
  5
20A
330
2
100
AcDbEntity
  8
Fastener
100
AcDbLine
 10
2811.812988689956
 20
-1238.850529748495
 30
0.0
 11
2811.812988689956
 21
-1242.089617113744
 31
0.0
  0
LINE
  5
20B
330
2
100
AcDbEntity
  8
Fastener
100
AcDbLine
 10
2804.490958950731
 20
-1283.545540593551
 30
0.0
 11
2811.812988689956
 21
-1261.665896753749
 31
0.0
  0
LINE
  5
20C
330
2
100
AcDbEntity
  8
Fastener
100
AcDbLine
 10
2811.812988689956
 20
-1266.467920210521
 30
0.0
 11
2811.812988689956
 21
-1278.418600175151
 31
0.0
  0
LINE
  5
20D
330
2
100
AcDbEntity
  8
Fastener
100
AcDbLine
 10
2803.713450823462
 20
-1279.136072886763
 30
0.0
 11
2809.403088136131
 21
-1262.134333968393
 31
0.0
  0
LINE
  5
20E
330
2
100
AcDbEntity
  8
Fastener
100
AcDbLine
 10
2810.788331466974
 20
-1264.727771110337
 30
0.0
 11
2810.788331466974
 21
-1278.196678682119
 31
0.0
  0
LINE
  5
20F
330
2
100
AcDbEntity
  8
Fastener
100
AcDbLine
 10
2811.812988689956
 20
-1252.427237953002
 30
0.0
 11
2811.812988689956
 21
-1255.666325318254
 31
0.0
  0
LINE
  5
210
330
2
100
AcDbEntity
  8
Fastener
100
AcDbLine
 10
2811.812988689956
 20
-1245.638883850749
 30
0.0
 11
2811.812988689956
 21
-1248.877971215999
 31
0.0
  0
LINE
  5
211
330
2
100
AcDbEntity
  8
Fastener
100
AcDbLine
 10
2814.737531180549
 20
-1243.096617849494
 30
0.0
 11
2811.812988689956
 21
-1245.638883850749
 31
0.0
  0
LINE
  5
212
330
2
100
AcDbEntity
  8
Fastener
100
AcDbLine
 10
2814.737531180549
 20
-1249.884971951751
 30
0.0
 11
2811.812988689954
 21
-1248.877971215999
 31
0.0
  0
LINE
  5
213
330
2
100
AcDbEntity
  8
Fastener
100
AcDbLine
 10
2814.737531180549
 20
-1249.884971951751
 30
0.0
 11
2811.812988689956
 21
-1252.427237953002
 31
0.0
  0
ARC
  5
214
330
2
100
AcDbEntity
  8
Fastener
100
AcDbCircle
 10
2811.121058078473
 20
-1264.539372741122
 30
0.0
 40
2.955610295882636
100
AcDbArc
 50
76.46097971803112
 51
125.539020281988
  0
LINE
  5
215
330
2
100
AcDbEntity
  8
Fastener
100
AcDbLine
 10
2811.812988689956
 20
-1259.215592055259
 30
0.0
 11
2811.812988689956
 21
-1261.665896753749
 31
0.0
  0
LINE
  5
216
330
2
100
AcDbEntity
  8
Fastener
100
AcDbLine
 10
2814.737531180549
 20
-1256.673326054003
 30
0.0
 11
2811.812988689956
 21
-1255.666325318254
 31
0.0
  0
LINE
  5
217
330
2
100
AcDbEntity
  8
Fastener
100
AcDbLine
 10
2814.737531180549
 20
-1256.673326054003
 30
0.0
 11
2811.812988689956
 21
-1259.215592055257
 31
0.0
  0
LINE
  5
218
330
2
100
AcDbEntity
  8
Fastener
100
AcDbLine
 10
2811.812988689956
 20
-1262.753225315893
 30
0.0
 11
2811.812988689956
 21
-1266.467920210521
 31
0.0
  0
LINE
  5
219
330
2
100
AcDbEntity
  8
Fastener
100
AcDbLine
 10
2811.812988689956
 20
-1261.665896753749
 30
0.0
 11
2812.676679739601
 21
-1261.498012220519
 31
0.0
  0
LINE
  5
21A
330
2
100
AcDbEntity
  8
Fastener
100
AcDbLine
 10
2811.423797153973
 20
-1262.82887648697
 30
0.0
 11
2812.880339963895
 21
-1262.545753245305
 31
0.0
  0
ARC
  5
21B
330
2
100
AcDbEntity
  8
Fastener
100
AcDbCircle
 10
2812.778509851749
 20
-1262.021882732913
 30
0.0
 40
0.5336756369696025
100
AcDbArc
 50
281.0000000000123
 51
101.0000000000123
  0
LINE
  5
21C
330
2
100
AcDbEntity
  8
Fastener
100
AcDbLine
 10
2810.788331466974
 20
-1278.196678682119
 30
0.0
 11
2804.85807594036
 21
-1282.448523882792
 31
0.0
  0
LINE
  5
21D
330
2
100
AcDbEntity
  8
Fastener
100
AcDbLine
 10
2804.490958950731
 20
-1283.545540593551
 30
0.0
 11
2803.713450823462
 21
-1279.136072886763
 31
0.0
  0
LINE
  5
21E
330
2
100
AcDbEntity
  8
Fastener
100
AcDbLine
 10
2804.490958950731
 20
-1283.545540593551
 30
0.0
 11
2811.812988689956
 21
-1278.418600175151
 31
0.0
  0
DIMENSION
  5
21F
330
2
100
AcDbEntity
  8
Dimension
 62
     1
100
AcDbDimension
280
     0
  2
*D3
 10
2872.640092031817
 20
-1163.280875606277
 30
0.0
 11
2861.469113323887
 21
-1136.935039899728
 31
0.0
 70
   132
  1
{\f????|b0|i0|c0|p54;TX-25}
 71
     5
 42
3.592574721742039
 73
     0
 74
     0
 75
     0
  3
FP
100
AcDbRadialDimension
 15
2874.042528627416
 25
-1166.588407121868
 35
0.0
 40
0.0
  0
CIRCLE
  5
228
330
2
100
AcDbEntity
  8
Fastener
100
AcDbCircle
 10
2876.734667758392
 20
-1172.304018327182
 30
0.0
 40
8.897882761388522
  0
CIRCLE
  5
229
330
2
100
AcDbEntity
  8
Fastener
  6
Continuous
100
AcDbCircle
 10
2876.903162291696
 20
-1172.763069037565
 30
0.0
 40
25.0
  0
LINE
  5
22A
330
2
100
AcDbEntity
  8
Fastener
100
AcDbLine
 10
2872.186959964018
 20
-1183.873725479325
 30
0.0
 11
2872.186959964018
 21
-1191.406740232793
 31
0.0
  0
LINE
  5
22B
330
2
100
AcDbEntity
  8
Fastener
100
AcDbLine
 10
2872.186959964018
 20
-1191.406740232793
 30
0.0
 11
2873.512460254315
 21
-1191.406740232793
 31
0.0
  0
LINE
  5
22C
330
2
100
AcDbEntity
  8
Fastener
100
AcDbLine
 10
2873.512460254315
 20
-1191.406740232793
 30
0.0
 11
2873.512460254315
 21
-1188.853709981794
 31
0.0
  0
LINE
  5
22D
330
2
100
AcDbEntity
  8
Fastener
100
AcDbLine
 10
2873.512460254315
 20
-1188.853709981794
 30
0.0
 11
2875.816306220161
 21
-1188.853709981794
 31
0.0
  0
LINE
  5
22E
330
2
100
AcDbEntity
  8
Fastener
100
AcDbLine
 10
2875.816306220161
 20
-1188.853709981794
 30
0.0
 11
2875.816306220161
 21
-1187.372322316269
 31
0.0
  0
LINE
  5
22F
330
2
100
AcDbEntity
  8
Fastener
100
AcDbLine
 10
2875.816306220161
 20
-1187.372322316269
 30
0.0
 11
2873.512460254315
 21
-1187.372322316269
 31
0.0
  0
LINE
  5
230
330
2
100
AcDbEntity
  8
Fastener
100
AcDbLine
 10
2873.512460254315
 20
-1187.372322316269
 30
0.0
 11
2873.512460254315
 21
-1185.414768330814
 31
0.0
  0
LINE
  5
231
330
2
100
AcDbEntity
  8
Fastener
100
AcDbLine
 10
2873.512460254315
 20
-1185.414768330814
 30
0.0
 11
2876.794651895709
 21
-1185.414768330814
 31
0.0
  0
LINE
  5
232
330
2
100
AcDbEntity
  8
Fastener
100
AcDbLine
 10
2876.794651895709
 20
-1185.102961998422
 30
0.0
 11
2876.794651895709
 21
-1183.873725479325
 31
0.0
  0
LINE
  5
233
330
2
100
AcDbEntity
  8
Fastener
100
AcDbLine
 10
2876.794651895709
 20
-1183.873725479325
 30
0.0
 11
2876.794651895709
 21
-1185.414768330814
 31
0.0
  0
LINE
  5
234
330
2
100
AcDbEntity
  8
Fastener
100
AcDbLine
 10
2872.186959964018
 20
-1183.873725479325
 30
0.0
 11
2876.794651895709
 21
-1183.873725479325
 31
0.0
  0
LINE
  5
235
330
2
100
AcDbEntity
  8
Fastener
100
AcDbLine
 10
2878.576118332281
 20
-1191.804133178248
 30
0.0
 11
2880.540595726008
 21
-1191.804133178248
 31
0.0
  0
ARC
  5
236
330
2
100
AcDbEntity
  8
Fastener
100
AcDbCircle
 10
2878.025605752079
 20
-1189.588227747259
 30
0.0
 40
3.351926527842655
100
AcDbArc
 50
318.6173928279938
 51
41.38260717200616
  0
LINE
  5
237
330
2
100
AcDbEntity
  8
Fastener
100
AcDbLine
 10
2878.576118332281
 20
-1191.804133178248
 30
0.0
 11
2878.576118332281
 21
-1194.807112425427
 31
0.0
  0
ARC
  5
238
330
2
100
AcDbEntity
  8
Fastener
100
AcDbCircle
 10
2878.343401477829
 20
-1189.600666530147
 30
0.0
 40
1.426630347063242
100
AcDbArc
 50
328.2663055987724
 51
34.60918938935806
  0
LINE
  5
239
330
2
100
AcDbEntity
  8
Fastener
100
AcDbLine
 10
2877.253103796806
 20
-1187.372322316269
 30
0.0
 11
2877.253103796806
 21
-1188.790375079444
 31
0.0
  0
LINE
  5
23A
330
2
100
AcDbEntity
  8
Fastener
100
AcDbLine
 10
2877.253103796806
 20
-1190.351034009641
 30
0.0
 11
2877.253103796806
 21
-1194.807112425427
 31
0.0
  0
LINE
  5
23B
330
2
100
AcDbEntity
  8
Fastener
100
AcDbLine
 10
2877.253103796806
 20
-1188.790375079444
 30
0.0
 11
2879.517582857378
 21
-1188.790375079444
 31
0.0
  0
LINE
  5
23C
330
2
100
AcDbEntity
  8
Fastener
100
AcDbLine
 10
2877.253103796806
 20
-1187.372322316269
 30
0.0
 11
2880.540595726008
 21
-1187.372322316269
 31
0.0
  0
LINE
  5
23D
330
2
100
AcDbEntity
  8
Fastener
100
AcDbLine
 10
2879.556753361201
 20
-1190.351034009641
 30
0.0
 11
2877.253103796806
 21
-1190.351034009641
 31
0.0
  0
LINE
  5
23E
330
2
100
AcDbEntity
  8
Fastener
100
AcDbLine
 10
2877.253104423838
 20
-1194.807112562228
 30
0.0
 11
2878.578604714137
 21
-1194.807112562228
 31
0.0
  0
ARC
  5
23F
330
2
100
AcDbEntity
  8
Fastener
100
AcDbCircle
 10
2872.285726377697
 20
-1164.598225815925
 30
0.0
 40
4.0
100
AcDbArc
 50
222.9895049856434
 51
17.01049501438865
  0
ARC
  5
240
330
2
100
AcDbEntity
  8
Fastener
100
AcDbCircle
 10
2881.18364846566
 20
-1164.598206024071
 30
0.0
 40
4.000036803567057
100
AcDbArc
 50
162.9899573505634
 51
317.0097314814129
  0
ARC
  5
241
330
2
100
AcDbEntity
  8
Fastener
100
AcDbCircle
 10
2885.632553042709
 20
-1172.303930419707
 30
0.0
 40
4.000002523718257
100
AcDbArc
 50
102.9901127288601
 51
257.0110193889411
  0
ARC
  5
242
330
2
100
AcDbEntity
  8
Fastener
100
AcDbCircle
 10
2881.183609139087
 20
-1180.00981083844
 30
0.0
 40
4.0
100
AcDbArc
 50
42.98950498564344
 51
197.0104950143886
  0
ARC
  5
243
330
2
100
AcDbEntity
  8
Fastener
100
AcDbCircle
 10
2872.285765704269
 20
-1180.009791046586
 30
0.0
 40
3.999963196525149
100
AcDbArc
 50
342.9890526118565
 51
137.0112585587532
  0
ARC
  5
244
330
2
100
AcDbEntity
  8
Fastener
100
AcDbCircle
 10
2867.836787519933
 20
-1172.303930419707
 30
0.0
 40
3.999997477859428
100
AcDbArc
 50
282.988897258661
 51
77.00997062284805
  0
DIMENSION
  5
245
330
2
100
AcDbEntity
  8
Dimension
 62
     1
100
AcDbDimension
280
     0
  2
*D4
 10
2757.091710893509
 20
-1283.545540593551
 30
0.0
 11
2757.09171089351
 21
-1232.179805162185
 31
0.0
 70
   128
  1
L\H0.6x;\S+0.75^ -0.75
 71
     5
 42
97.64014600247902
 73
     0
 74
     0
 75
     0
  3
FP
100
AcDbAlignedDimension
 13
2781.47816392076
 23
-1185.905394591072
 33
0.0
 14
2802.889932039823
 24
-1283.545540593551
 34
0.0
 50
270.0
100
AcDbRotatedDimension
  0
DIMENSION
  5
252
330
2
100
AcDbEntity
  8
Dimension
  6
Continuous
 62
     1
100
AcDbDimension
280
     0
  2
*D5
 10
2902.274290104193
 20
-1215.809452684599
 30
0.0
 11
2877.088726197944
 21
-1211.509452684599
 31
0.0
  1
%%C12.75\H0.6x;\S+0.25^ -0.25
 71
     5
 42
50.37112781249743
 73
     0
 74
     0
 75
     0
  3
FP
100
AcDbAlignedDimension
 13
2851.903162291696
 23
-1172.763069037565
 33
0.0
 14
2902.274290104193
 24
-1172.763069037565
 34
0.0
100
AcDbRotatedDimension
  0
LINE
  5
25F
330
2
100
AcDbEntity
  8
Fastener
  6
HIDDEN2
100
AcDbLine
 10
2809.290181670794
 20
-1162.784087174844
 30
0.0
 11
2809.315711844508
 21
-1171.612845325365
 31
0.0
  0
LINE
  5
261
330
2
100
AcDbEntity
  8
Fastener
  6
HIDDEN2
100
AcDbLine
 10
2809.093375241326
 20
-1175.303052800339
 30
0.0
 11
2804.454810952673
 21
-1175.303052800339
 31
0.0
  0
LINE
  5
262
330
2
100
AcDbEntity
  8
Fastener
  6
HIDDEN2
100
AcDbLine
 10
2814.846893066508
 20
-1171.612845325365
 30
0.0
 11
2809.484855455383
 21
-1175.175397835555
 31
0.0
  0
LINE
  5
263
330
2
100
AcDbEntity
  8
Fastener
  6
HIDDENX2
100
AcDbLine
 10
2804.454810952673
 20
-1171.612845325365
 30
0.0
 11
2814.846893066508
 21
-1171.612845325365
 31
0.0
  0
LINE
  5
265
330
2
100
AcDbEntity
  8
Fastener
  6
HIDDEN2
100
AcDbLine
 10
2814.944049882917
 20
-1162.801586182454
 30
0.0
 11
2814.846893066508
 21
-1171.612845325365
 31
0.0
  0
LINE
  5
266
330
2
100
AcDbEntity
  8
Fastener
100
AcDbLine
 10
2828.133957984585
 20
-1177.475394591072
 30
0.0
 11
2804.454810952672
 21
-1177.533600866323
 31
0.0
  0
LINE
  5
267
330
2
100
AcDbEntity
  8
Fastener
100
AcDbLine
 10
2815.149022990003
 20
-1162.784087174844
 30
0.0
 11
2804.454810952673
 21
-1162.784087174844
 31
0.0
  0
ARC
  5
268
330
2
100
AcDbEntity
  8
Fastener
100
AcDbCircle
 10
2809.713562771594
 20
-1182.388337398801
 30
0.0
 40
20.3438161274978
100
AcDbArc
 50
17.7946082331972
 51
74.503472589401
  0
ARC
  5
269
330
2
100
AcDbEntity
  8
Fastener
100
AcDbCircle
 10
2828.131499868195
 20
-1176.475397612244
 30
0.0
 40
1.0
100
AcDbArc
 50
270.1408398365207
 51
17.71283550051913
  0
LINE
  5
26A
330
2
100
AcDbEntity
  8
Fastener
  6
HIDDEN2
100
AcDbLine
 10
2812.670621333791
 20
-1173.005272711981
 30
0.0
 11
2804.454810952673
 21
-1173.005272711981
 31
0.0
  0
DIMENSION
  5
26B
330
2
100
AcDbEntity
  8
Dimension
 62
     1
100
AcDbDimension
280
     0
  2
*D6
 10
2757.091710893509
 20
-1177.478801246624
 30
0.0
 11
2757.091710893509
 21
-1149.917420508177
 31
0.0
 70
   128
  1
3.5\H0.6x;\S+0.1^ -0.15
 71
     5
 42
14.69471407177957
 73
     0
 74
     0
 75
     0
  3
FP
100
AcDbAlignedDimension
 13
2793.352245555933
 23
-1162.784087174844
 33
0.0
 14
2782.161540226219
 24
-1177.478801246624
 34
0.0
 50
270.0
100
AcDbRotatedDimension
  0
LINE
  5
279
330
2
100
AcDbEntity
  8
Fastener
100
AcDbLine
 10
2781.47816392076
 20
-1185.905394591072
 30
0.0
 11
2827.431457984585
 21
-1185.905394591071
 31
0.0
  0
LINE
  5
27A
330
2
100
AcDbEntity
  8
Fastener
100
AcDbLine
 10
2827.431457984585
 20
-1185.905394591071
 30
0.0
 11
2828.133957984585
 21
-1177.475394591072
 31
0.0
  0
LINE
  5
27B
330
2
100
AcDbEntity
  8
Fastener
100
AcDbLine
 10
2781.47816392076
 20
-1185.905394591072
 30
0.0
 11
2780.77566392076
 21
-1177.475394591072
 31
0.0
  0
LINE
  5
27C
330
2
100
AcDbEntity
  8
Fastener
  6
HIDDEN2
100
AcDbLine
 10
2799.619440234551
 20
-1162.784087174844
 30
0.0
 11
2799.593910060837
 21
-1171.612845325365
 31
0.0
  0
LINE
  5
27D
330
2
100
AcDbEntity
  8
Fastener
  6
HIDDEN2
100
AcDbLine
 10
2799.816246664019
 20
-1175.303052800339
 30
0.0
 11
2804.454810952672
 21
-1175.303052800339
 31
0.0
  0
LINE
  5
27E
330
2
100
AcDbEntity
  8
Fastener
  6
HIDDEN2
100
AcDbLine
 10
2794.062728838837
 20
-1171.612845325365
 30
0.0
 11
2799.424766449962
 21
-1175.175397835555
 31
0.0
  0
LINE
  5
27F
330
2
100
AcDbEntity
  8
Fastener
  6
HIDDENX2
100
AcDbLine
 10
2804.454810952672
 20
-1171.612845325365
 30
0.0
 11
2794.062728838837
 21
-1171.612845325365
 31
0.0
  0
LINE
  5
280
330
2
100
AcDbEntity
  8
Fastener
  6
HIDDEN2
100
AcDbLine
 10
2793.965572022429
 20
-1162.801586182454
 30
0.0
 11
2794.062728838837
 21
-1171.612845325365
 31
0.0
  0
LINE
  5
281
330
2
100
AcDbEntity
  8
Fastener
100
AcDbLine
 10
2780.77566392076
 20
-1177.475394591072
 30
0.0
 11
2804.454810952672
 21
-1177.533600866323
 31
0.0
  0
LINE
  5
282
330
2
100
AcDbEntity
  8
Fastener
100
AcDbLine
 10
2793.760598915342
 20
-1162.784087174844
 30
0.0
 11
2804.454810952672
 21
-1162.784087174844
 31
0.0
  0
ARC
  5
283
330
2
100
AcDbEntity
  8
Fastener
100
AcDbCircle
 10
2799.196059133751
 20
-1182.388337398801
 30
0.0
 40
20.3438161274978
100
AcDbArc
 50
105.4965274106259
 51
162.2053917668028
  0
ARC
  5
284
330
2
100
AcDbEntity
  8
Fastener
100
AcDbCircle
 10
2780.77812203715
 20
-1176.475397612244
 30
0.0
 40
1.0
100
AcDbArc
 50
162.2871644994808
 51
269.8591601634793
  0
LINE
  5
285
330
2
100
AcDbEntity
  8
Fastener
  6
HIDDEN2
100
AcDbLine
 10
2796.239000571553
 20
-1173.005272711981
 30
0.0
 11
2804.454810952672
 21
-1173.005272711981
 31
0.0
  0
LINE
  5
286
330
2
100
AcDbEntity
  8
Fastener
100
AcDbLine
 10
2828.133957984585
 20
-1177.475394591072
 30
0.0
 11
2804.454810952672
 21
-1177.533600866323
 31
0.0
  0
LINE
  5
287
330
2
100
AcDbEntity
  8
Fastener
100
AcDbLine
 10
2780.77566392076
 20
-1177.475394591072
 30
0.0
 11
2804.454810952672
 21
-1177.533600866323
 31
0.0
  0
DIMENSION
  5
288
330
2
100
AcDbEntity
  8
Dimension
100
AcDbDimension
280
     0
  2
*D7
 10
2757.091710893509
 20
-1185.905394591072
 30
0.0
 11
2753.591710893509
 21
-1181.690394591071
 31
0.0
  1
2
 71
     5
 42
8.430000000000063
 73
     0
 74
     0
 75
     0
  3
ISO-25
100
AcDbAlignedDimension
 13
2780.77566392076
 23
-1177.475394591072
 33
0.0
 14
2781.47816392076
 24
-1185.905394591072
 34
0.0
 50
90.0
100
AcDbRotatedDimension
  0
ENDSEC
  0
SECTION
  2
OBJECTS
  0
DICTIONARY
  5
B
330
0
100
AcDbDictionary
281
     1
  3
ACAD_CIP_PREVIOUS_PRODUCT_INFO
350
2B5
  3
ACAD_COLOR
350
4D
  3
ACAD_DETAILVIEWSTYLE
350
2AF
  3
ACAD_FIELDLIST
350
296
  3
ACAD_GROUP
350
3A
  3
ACAD_LAYOUT
350
19
  3
ACAD_MATERIAL
350
D
  3
ACAD_MLEADERSTYLE
350
50
  3
ACAD_MLINESTYLE
350
3B
  3
ACAD_PLOTSETTINGS
350
3C
  3
ACAD_PLOTSTYLENAME
350
A
  3
ACAD_SCALELIST
350
4E
  3
ACAD_SECTIONVIEWSTYLE
350
2AD
  3
ACAD_TABLESTYLE
350
4F
  3
ACAD_VISUALSTYLE
350
33
  3
ACDB_RECOMPOSE_DATA
350
2BF
  3
AcDbVariableDictionary
350
51
  0
DICTIONARY
  5
23
330
22
100
AcDbDictionary
280
     1
281
     1
  3
ACAD_LAYERFILTERS
360
24
  3
ACAD_LAYERSTATES
360
25
  3
ACLYDICTIONARY
360
26
  0
DICTIONARY
  5
7
330
6
100
AcDbDictionary
280
     1
281
     1
  3
ADSK_XREC_LAYER_RECONCILED
360
8
  0
DICTIONARY
  5
176
330
175
100
AcDbDictionary
280
     1
281
     1
  3
ADSK_XREC_LAYER_RECONCILED
360
177
  0
DICTIONARY
  5
97
330
96
100
AcDbDictionary
280
     1
281
     1
  3
ADSK_XREC_LAYER_RECONCILED
360
98
  0
DICTIONARY
  5
3
330
2
100
AcDbDictionary
280
     1
281
     1
  3
ACAD_SORTENTS
360
295
  0
XRECORD
  5
2B5
102
{ACAD_REACTORS
330
B
102
}
330
B
100
AcDbXrecord
280
     1
300
ACDLTM
300
2021
300

  0
DICTIONARY
  5
4D
102
{ACAD_REACTORS
330
B
102
}
330
B
100
AcDbDictionary
281
     1
  0
DICTIONARY
  5
2AF
102
{ACAD_REACTORS
330
B
102
}
330
B
100
AcDbDictionary
281
     1
  3
Imperial24
350
2B0
  0
FIELDLIST
  5
296
102
{ACAD_REACTORS
330
B
102
}
330
B
100
AcDbIdSet
 90
        0
100
AcDbFieldList
  0
DICTIONARY
  5
3A
102
{ACAD_REACTORS
330
B
102
}
330
B
100
AcDbDictionary
281
     1
  0
DICTIONARY
  5
19
102
{ACAD_REACTORS
330
B
102
}
330
B
100
AcDbDictionary
281
     1
  3
Layout1
350
21
  3
Model
350
18
1001
AcadStringInfo
1000
MIFCodePage
1070
     2
  0
DICTIONARY
  5
D
102
{ACAD_REACTORS
330
B
102
}
330
B
100
AcDbDictionary
281
     1
  3
ByBlock
350
45
  3
ByLayer
350
3D
  3
Global
350
C
  0
DICTIONARY
  5
50
102
{ACAD_REACTORS
330
B
102
}
330
B
100
AcDbDictionary
281
     1
  3
Standard
350
2AC
  0
DICTIONARY
  5
3B
102
{ACAD_REACTORS
330
B
102
}
330
B
100
AcDbDictionary
281
     1
  3
Standard
350
5E
  0
DICTIONARY
  5
3C
102
{ACAD_REACTORS
330
B
102
}
330
B
100
AcDbDictionary
281
     1
  0
ACDBDICTIONARYWDFLT
  5
A
102
{ACAD_REACTORS
330
B
102
}
330
B
100
AcDbDictionary
281
     1
  3
Normal
350
9
100
AcDbDictionaryWithDefault
340
9
  0
DICTIONARY
  5
4E
102
{ACAD_REACTORS
330
B
102
}
330
B
100
AcDbDictionary
281
     1
  3
A0
350
62
  3
A1
350
63
  3
A2
350
64
  3
A3
350
65
  3
A4
350
66
  3
A5
350
67
  3
A6
350
68
  3
A7
350
69
  3
A8
350
6A
  3
A9
350
6B
  3
B0
350
6C
  3
B1
350
6D
  3
B2
350
6E
  3
B3
350
6F
  3
B4
350
70
  3
B5
350
71
  3
B6
350
72
  0
DICTIONARY
  5
2AD
102
{ACAD_REACTORS
330
B
102
}
330
B
100
AcDbDictionary
281
     1
  3
Imperial24
350
2AE
  0
DICTIONARY
  5
4F
102
{ACAD_REACTORS
330
B
102
}
330
B
100
AcDbDictionary
281
     1
  3
Standard
350
5F
  0
DICTIONARY
  5
33
102
{ACAD_REACTORS
330
B
102
}
330
B
100
AcDbDictionary
281
     1
  3
2dWireframe
350
32
  3
Basic
350
29C
  3
Brighten
350
2A0
  3
ColorChange
350
2A4
  3
Conceptual
350
29E
  3
Dim
350
29F
  3
EdgeColorOff
350
1AE
  3
Facepattern
350
2A3
  3
Flat
350
298
  3
FlatWithEdges
350
299
  3
Gouraud
350
29A
  3
GouraudWithEdges
350
29B
  3
Hidden
350
29D
  3
JitterOff
350
2AA
  3
Linepattern
350
2A2
  3
OverhangOff
350
2AB
  3
Realistic
350
60
  3
Shaded
350
2A9
  3
Shaded with edges
350
2A8
  3
Shades of Gray
350
2A5
  3
Sketchy
350
2A6
  3
Thicken
350
2A1
  3
Wireframe
350
61
  3
X-Ray
350
2A7
  0
XRECORD
  5
2BF
102
{ACAD_REACTORS
330
B
102
}
330
B
100
AcDbXrecord
280
     1
 90
        1
330
5F
  0
DICTIONARY
  5
51
102
{ACAD_REACTORS
330
B
102
}
330
B
100
AcDbDictionary
281
     1
  3
CANNOSCALE
350
52
  3
CMLEADERSTYLE
350
53
  3
CTABLESTYLE
350
54
  3
CVIEWDETAILSTYLE
350
55
  3
CVIEWSECTIONSTYLE
350
56
  3
EXPORTMODELSPACE
350
57
  3
EXPORTPAGESETUP
350
58
  3
HPCOLOR
350
59
  3
LAYEREVAL
350
5A
  3
LAYERNOTIFY
350
5B
  3
LIGHTINGUNITS
350
5C
  3
MSLTSCALE
350
5D
  0
DICTIONARY
  5
24
102
{ACAD_REACTORS
330
23
102
}
330
23
100
AcDbDictionary
281
     1
  0
DICTIONARY
  5
25
102
{ACAD_REACTORS
330
23
102
}
330
23
100
AcDbDictionary
281
     1
  0
DICTIONARY
  5
26
102
{ACAD_REACTORS
330
23
102
}
330
23
100
AcDbDictionary
281
     1
1001
ACAD
1000
<All
  0
XRECORD
  5
8
102
{ACAD_REACTORS
330
7
102
}
330
7
100
AcDbXrecord
280
     1
290
     1
  0
XRECORD
  5
177
102
{ACAD_REACTORS
330
176
102
}
330
176
100
AcDbXrecord
280
     1
290
     1
  0
XRECORD
  5
98
102
{ACAD_REACTORS
330
97
102
}
330
97
100
AcDbXrecord
280
     1
290
     1
  0
SORTENTSTABLE
  5
295
102
{ACAD_REACTORS
330
3
102
}
330
3
100
AcDbSortentsTable
330
2
  0
ACDBDETAILVIEWSTYLE
  5
2B0
102
{ACAD_REACTORS
330
2AF
102
}
330
2AF
100
AcDbModelDocViewStyle
 70
     0
  3
Imperial24
290
     1
300
Imperial24
 90
        0
100
AcDbDetailViewStyle
 70
     0
 71
     0
 90
        3
 71
     1
340
29
 62
   256
 40
0.24
340
0
 62
   256
 40
0.24
300

 40
0.36
280
     3
 71
     2
340
16
 90
       25
 62
   256
 71
     3
340
29
 62
   256
 40
0.24
 90
        1
 40
0.75
 90
        1
300
%<\AcVar ViewType \f "%tc1">% %<\AcVar ViewDetailId>%\PSCALE %<\AcVar ViewScale \f "%sn">%
 71
     4
340
16
 90
       25
 62
   256
340
16
 90
       25
 62
   256
280
     0
  0
LAYOUT
  5
21
102
{ACAD_REACTORS
330
19
102
}
330
19
100
AcDbPlotSettings
  1

  2
HP LaserJet MFP M130fw
  4
iso-a4
  6

 40
4.938889026641845
 41
5.997222900390625
 42
4.938888549804687
 43
5.997222900390625
 44
209.9027709960938
 45
297.0388793945312
 46
0.0
 47
0.0
 48
0.0
 49
0.0
140
0.0
141
0.0
142
1.0
143
1.0
 70
   688
 72
     0
 73
     1
 74
     5
  7

 75
    16
147
1.0
 76
     0
 77
     2
 78
   300
148
0.0
149
0.0
100
AcDbLayout
  1
Layout1
 70
     1
 71
     1
 10
-0.2361111378106545
 20
-0.1944444498677892
 11
11.45833293284018
 21
8.069444172025665
 12
0.0
 22
0.0
 32
0.0
 14
1.122222179502951
 24
0.7874999740930991
 34
0.0
 15
10.09999961552657
 25
7.087499766837893
 35
0.0
146
0.0
 13
0.0
 23
0.0
 33
0.0
 16
1.0
 26
0.0
 36
0.0
 17
0.0
 27
1.0
 37
0.0
 76
     0
330
1E
1001
ACAD_PSEXT
1000
HP LaserJet MFP M130fw
1000
HP LaserJet MFP M129-M134
1000
localhost
1000

1070
     0
  0
LAYOUT
  5
18
102
{ACAD_XDICTIONARY
360
1B
102
}
102
{ACAD_REACTORS
330
19
102
}
330
19
100
AcDbPlotSettings
  1

  2
PrimoPDF
  4
User32767
  6

 40
3.174999952316284
 41
3.174999952316284
 42
3.175003051757812
 43
3.17498779296875
 44
210.0
 45
297.0
 46
0.0
 47
26.69
 48
-12.28511340672344
 49
-48.6999194833271
140
298.4744035873891
141
218.0228130641424
142
1.0
143
1.309711448475029
 70
 11956
 72
     1
 73
     1
 74
     4
  7

 75
     0
147
0.7635269594416055
 76
     0
 77
     2
 78
   300
148
12.28511340672344
149
48.6999194833271
100
AcDbLayout
  1
Model
 70
     1
 71
     0
 10
0.0
 20
0.0
 11
12.0
 21
9.0
 12
0.0
 22
0.0
 32
0.0
 14
0.0
 24
0.0
 34
0.0
 15
0.0
 25
0.0
 35
0.0
146
0.0
 13
0.0
 23
0.0
 33
0.0
 16
1.0
 26
0.0
 36
0.0
 17
0.0
 27
1.0
 37
0.0
 76
     0
330
2
331
31
  0
MATERIAL
  5
45
102
{ACAD_XDICTIONARY
360
46
102
}
102
{ACAD_REACTORS
330
D
102
}
330
D
100
AcDbMaterial
  1
ByBlock
 72
     0
 43
0.0008202099737533
 43
0.0
 43
0.0
 43
0.0
 43
0.0
 43
0.0008202099737533
 43
0.0
 43
0.0
 43
0.0
 43
0.0
 43
1.0
 43
0.0
 43
0.0
 43
0.0
 43
0.0
 43
1.0
 77
     0
 47
0.0008202099737533
 47
0.0
 47
0.0
 47
0.0
 47
0.0
 47
0.0008202099737533
 47
0.0
 47
0.0
 47
0.0
 47
0.0
 47
1.0
 47
0.0
 47
0.0
 47
0.0
 47
0.0
 47
1.0
171
     0
 49
0.0008202099737533
 49
0.0
 49
0.0
 49
0.0
 49
0.0
 49
0.0008202099737533
 49
0.0
 49
0.0
 49
0.0
 49
0.0
 49
1.0
 49
0.0
 49
0.0
 49
0.0
 49
0.0
 49
1.0
175
     0
142
0.0008202099737533
142
0.0
142
0.0
142
0.0
142
0.0
142
0.0008202099737533
142
0.0
142
0.0
142
0.0
142
0.0
142
1.0
142
0.0
142
0.0
142
0.0
142
0.0
142
1.0
179
     0
144
0.0008202099737533
144
0.0
144
0.0
144
0.0
144
0.0
144
0.0008202099737533
144
0.0
144
0.0
144
0.0
144
0.0
144
1.0
144
0.0
144
0.0
144
0.0
144
0.0
144
1.0
147
0.0008202099737533
147
0.0
147
0.0
147
0.0
147
0.0
147
0.0008202099737533
147
0.0
147
0.0
147
0.0
147
0.0
147
1.0
147
0.0
147
0.0
147
0.0
147
0.0
147
1.0
  0
MATERIAL
  5
3D
102
{ACAD_XDICTIONARY
360
3E
102
}
102
{ACAD_REACTORS
330
D
102
}
330
D
100
AcDbMaterial
  1
ByLayer
 72
     0
 43
0.0008202099737533
 43
0.0
 43
0.0
 43
0.0
 43
0.0
 43
0.0008202099737533
 43
0.0
 43
0.0
 43
0.0
 43
0.0
 43
1.0
 43
0.0
 43
0.0
 43
0.0
 43
0.0
 43
1.0
 77
     0
 47
0.0008202099737533
 47
0.0
 47
0.0
 47
0.0
 47
0.0
 47
0.0008202099737533
 47
0.0
 47
0.0
 47
0.0
 47
0.0
 47
1.0
 47
0.0
 47
0.0
 47
0.0
 47
0.0
 47
1.0
171
     0
 49
0.0008202099737533
 49
0.0
 49
0.0
 49
0.0
 49
0.0
 49
0.0008202099737533
 49
0.0
 49
0.0
 49
0.0
 49
0.0
 49
1.0
 49
0.0
 49
0.0
 49
0.0
 49
0.0
 49
1.0
175
     0
142
0.0008202099737533
142
0.0
142
0.0
142
0.0
142
0.0
142
0.0008202099737533
142
0.0
142
0.0
142
0.0
142
0.0
142
1.0
142
0.0
142
0.0
142
0.0
142
0.0
142
1.0
179
     0
144
0.0008202099737533
144
0.0
144
0.0
144
0.0
144
0.0
144
0.0008202099737533
144
0.0
144
0.0
144
0.0
144
0.0
144
1.0
144
0.0
144
0.0
144
0.0
144
0.0
144
1.0
147
0.0008202099737533
147
0.0
147
0.0
147
0.0
147
0.0
147
0.0008202099737533
147
0.0
147
0.0
147
0.0
147
0.0
147
1.0
147
0.0
147
0.0
147
0.0
147
0.0
147
1.0
  0
MATERIAL
  5
C
102
{ACAD_XDICTIONARY
360
E
102
}
102
{ACAD_REACTORS
330
D
102
}
330
D
100
AcDbMaterial
  1
Global
 72
     0
 43
0.0008202099737533
 43
0.0
 43
0.0
 43
0.0
 43
0.0
 43
0.0008202099737533
 43
0.0
 43
0.0
 43
0.0
 43
0.0
 43
1.0
 43
0.0
 43
0.0
 43
0.0
 43
0.0
 43
1.0
 77
     0
 47
0.0008202099737533
 47
0.0
 47
0.0
 47
0.0
 47
0.0
 47
0.0008202099737533
 47
0.0
 47
0.0
 47
0.0
 47
0.0
 47
1.0
 47
0.0
 47
0.0
 47
0.0
 47
0.0
 47
1.0
171
     0
 49
0.0008202099737533
 49
0.0
 49
0.0
 49
0.0
 49
0.0
 49
0.0008202099737533
 49
0.0
 49
0.0
 49
0.0
 49
0.0
 49
1.0
 49
0.0
 49
0.0
 49
0.0
 49
0.0
 49
1.0
175
     0
142
0.0008202099737533
142
0.0
142
0.0
142
0.0
142
0.0
142
0.0008202099737533
142
0.0
142
0.0
142
0.0
142
0.0
142
1.0
142
0.0
142
0.0
142
0.0
142
0.0
142
1.0
179
     0
144
0.0008202099737533
144
0.0
144
0.0
144
0.0
144
0.0
144
0.0008202099737533
144
0.0
144
0.0
144
0.0
144
0.0
144
1.0
144
0.0
144
0.0
144
0.0
144
0.0
144
1.0
147
0.0008202099737533
147
0.0
147
0.0
147
0.0
147
0.0
147
0.0008202099737533
147
0.0
147
0.0
147
0.0
147
0.0
147
1.0
147
0.0
147
0.0
147
0.0
147
0.0
147
1.0
  0
MLEADERSTYLE
  5
2AC
102
{ACAD_REACTORS
330
50
102
}
330
50
100
AcDbMLeaderStyle
179
     2
170
     2
171
     1
172
     0
 90
        2
 40
0.0
 41
0.0
173
     1
 91
-1056964608
340
2C
 92
       -2
290
     1
 42
0.09
291
     1
 43
0.36
  3
Standard
 44
0.18
300

342
29
174
     1
178
     6
175
     1
176
     0
 93
-1056964608
 45
0.18
292
     0
297
     0
 46
0.18
 94
-1056964608
 47
1.0
 49
1.0
140
1.0
293
     1
141
0.0
294
     1
177
     0
142
1.0
295
     1
296
     0
143
0.125
271
     0
272
     9
273
     9
298
     1
  0
MLINESTYLE
  5
5E
102
{ACAD_REACTORS
330
3B
102
}
330
3B
100
AcDbMlineStyle
  2
STANDARD
 70
     0
  3

 62
   256
 51
90.0
 52
90.0
 71
     2
 49
0.5
 62
   256
  6
BYLAYER
 49
-0.5
 62
   256
  6
BYLAYER
  0
ACDBPLACEHOLDER
  5
9
102
{ACAD_REACTORS
330
A
102
}
330
A
  0
SCALE
  5
62
102
{ACAD_REACTORS
330
4E
102
}
330
4E
100
AcDbScale
 70
     0
300
1:1
140
1.0
141
1.0
290
     1
  0
SCALE
  5
63
102
{ACAD_REACTORS
330
4E
102
}
330
4E
100
AcDbScale
 70
     0
300
1/128" = 1'-0"
140
0.0078125
141
12.0
290
     0
  0
SCALE
  5
64
102
{ACAD_REACTORS
330
4E
102
}
330
4E
100
AcDbScale
 70
     0
300
1/64" = 1'-0"
140
0.015625
141
12.0
290
     0
  0
SCALE
  5
65
102
{ACAD_REACTORS
330
4E
102
}
330
4E
100
AcDbScale
 70
     0
300
1/32" = 1'-0"
140
0.03125
141
12.0
290
     0
  0
SCALE
  5
66
102
{ACAD_REACTORS
330
4E
102
}
330
4E
100
AcDbScale
 70
     0
300
1/16" = 1'-0"
140
0.0625
141
12.0
290
     0
  0
SCALE
  5
67
102
{ACAD_REACTORS
330
4E
102
}
330
4E
100
AcDbScale
 70
     0
300
3/32" = 1'-0"
140
0.09375
141
12.0
290
     0
  0
SCALE
  5
68
102
{ACAD_REACTORS
330
4E
102
}
330
4E
100
AcDbScale
 70
     0
300
1/8" = 1'-0"
140
0.125
141
12.0
290
     0
  0
SCALE
  5
69
102
{ACAD_REACTORS
330
4E
102
}
330
4E
100
AcDbScale
 70
     0
300
3/16" = 1'-0"
140
0.1875
141
12.0
290
     0
  0
SCALE
  5
6A
102
{ACAD_REACTORS
330
4E
102
}
330
4E
100
AcDbScale
 70
     0
300
1/4" = 1'-0"
140
0.25
141
12.0
290
     0
  0
SCALE
  5
6B
102
{ACAD_REACTORS
330
4E
102
}
330
4E
100
AcDbScale
 70
     0
300
3/8" = 1'-0"
140
0.375
141
12.0
290
     0
  0
SCALE
  5
6C
102
{ACAD_REACTORS
330
4E
102
}
330
4E
100
AcDbScale
 70
     0
300
1/2" = 1'-0"
140
0.5
141
12.0
290
     0
  0
SCALE
  5
6D
102
{ACAD_REACTORS
330
4E
102
}
330
4E
100
AcDbScale
 70
     0
300
3/4" = 1'-0"
140
0.75
141
12.0
290
     0
  0
SCALE
  5
6E
102
{ACAD_REACTORS
330
4E
102
}
330
4E
100
AcDbScale
 70
     0
300
1" = 1'-0"
140
1.0
141
12.0
290
     0
  0
SCALE
  5
6F
102
{ACAD_REACTORS
330
4E
102
}
330
4E
100
AcDbScale
 70
     0
300
1-1/2" = 1'-0"
140
1.5
141
12.0
290
     0
  0
SCALE
  5
70
102
{ACAD_REACTORS
330
4E
102
}
330
4E
100
AcDbScale
 70
     0
300
3" = 1'-0"
140
3.0
141
12.0
290
     0
  0
SCALE
  5
71
102
{ACAD_REACTORS
330
4E
102
}
330
4E
100
AcDbScale
 70
     0
300
6" = 1'-0"
140
6.0
141
12.0
290
     0
  0
SCALE
  5
72
102
{ACAD_REACTORS
330
4E
102
}
330
4E
100
AcDbScale
 70
     0
300
1'-0" = 1'-0"
140
12.0
141
12.0
290
     0
  0
ACDBSECTIONVIEWSTYLE
  5
2AE
102
{ACAD_REACTORS
330
2AD
102
}
330
2AD
100
AcDbModelDocViewStyle
 70
     0
  3
Imperial24
290
     1
300
Imperial24
 90
        0
100
AcDbSectionViewStyle
 70
     0
 71
     0
 90
       78
 71
     1
340
29
 62
   256
 40
0.24
340
0
340
0
 62
   256
 40
0.24
300
I, O, Q, S, X, Z
 40
0.48
 90
        3
 40
0.18
 90
        1
 71
     2
340
16
 90
       25
 62
   256
340
16
 90
       50
 62
   256
 40
0.24
 40
0.0
 40
0.24
 71
     3
340
29
 62
   256
 40
0.24
 90
        1
 40
0.75
 90
        1
300
%<\AcVar ViewType \f "%tc1">% %<\AcVar ViewSectionStartId>%-%<\AcVar ViewSectionEndId>%\PSCALE %<\AcVar ViewScale \f "%sn">%
 71
     4
 62
   256
 62
   257
300
ANSI31
 40
1.0
 90
        0
290
     0
290
     0
 90
        6
 40
0.0
 40
1.570796326794896
 40
0.2617993877991494
 40
1.308996938995747
 40
-0.2617993877991494
 40
1.832595714594046
  0
TABLESTYLE
  5
5F
102
{ACAD_XDICTIONARY
360
2BD
102
}
102
{ACAD_REACTORS
330
4F
102
}
330
4F
100
AcDbTableStyle
280
     0
  3
Standard
 70
     0
 71
     0
 40
0.06
 41
0.06
280
     0
281
     0
  7
Standard
140
0.18
170
     2
 62
     0
 63
     7
283
     0
 90
        4
 91
        0
  1

274
    -2
284
     1
 64
     0
275
    -2
285
     1
 65
     0
276
    -2
286
     1
 66
     0
277
    -2
287
     1
 67
     0
278
    -2
288
     1
 68
     0
279
    -2
289
     1
 69
     0
  7
Standard
140
0.25
170
     5
 62
     0
 63
     7
283
     0
 90
        4
 91
        0
  1

274
    -2
284
     1
 64
     0
275
    -2
285
     1
 65
     0
276
    -2
286
     1
 66
     0
277
    -2
287
     1
 67
     0
278
    -2
288
     1
 68
     0
279
    -2
289
     1
 69
     0
  7
Standard
140
0.18
170
     5
 62
     0
 63
     7
283
     0
 90
        4
 91
        0
  1

274
    -2
284
     1
 64
     0
275
    -2
285
     1
 65
     0
276
    -2
286
     1
 66
     0
277
    -2
287
     1
 67
     0
278
    -2
288
     1
 68
     0
279
    -2
289
     1
 69
     0
  0
VISUALSTYLE
  5
32
102
{ACAD_REACTORS
330
33
102
}
330
33
100
AcDbVisualStyle
  2
2dWireframe
 70
     4
177
     3
291
     0
 70
    58
 90
        0
176
     1
 90
        2
176
     1
 90
        0
176
     1
 90
        0
176
     1
 40
0.6
176
     1
 40
30.0
176
     1
 62
     7
420
 16777215
176
     1
 90
        1
176
     1
 90
        4
176
     1
 62
     7
176
     1
 62
   257
176
     1
 90
        1
176
     1
 90
        1
176
     1
 40
1.0
176
     1
 90
        0
176
     1
 62
   257
176
     1
 40
1.0
176
     1
 90
        1
176
     1
 90
        6
176
     1
 90
        2
176
     1
 62
     7
176
     1
 90
        5
176
     1
 90
        0
176
     1
 90
        0
176
     1
290
     0
176
     1
 90
        1
176
     1
 40
0.0
176
     1
 90
        0
176
     1
290
     1
176
     1
290
     1
176
     1
290
     0
176
     1
290
     0
176
     1
290
     0
176
     1
290
     0
176
     1
290
     0
176
     1
290
     0
176
     1
290
     0
176
     1
 90
       50
176
     1
 40
0.0
176
     1
 40
1.0
176
     1
 90
        0
176
     1
 62
    18
420
        0
176
     1
 90
       50
176
     1
 90
        3
176
     1
 62
     5
420
      255
176
     1
290
     0
176
     1
 90
       50
176
     1
 90
       50
176
     1
 90
       50
176
     1
290
     0
176
     1
 90
       50
176
     1
 62
   256
176
     0
 40
1.0
176
     0
 90
        2
176
     1
  1
strokes_ogs.tif
176
     1
290
     0
176
     1
 40
1.0
176
     1
 40
1.0
176
     1
  0
VISUALSTYLE
  5
29C
102
{ACAD_REACTORS
330
33
102
}
330
33
100
AcDbVisualStyle
  2
Basic
 70
     7
177
     3
291
     1
 70
    58
 90
        1
176
     1
 90
        0
176
     1
 90
        1
176
     1
 90
        0
176
     1
 40
0.6
176
     1
 40
30.0
176
     1
 62
     7
420
 16777215
176
     1
 90
        0
176
     1
 90
        4
176
     1
 62
     7
176
     1
 62
   257
176
     1
 90
        1
176
     1
 90
        1
176
     1
 40
1.0
176
     1
 90
        8
176
     1
 62
     7
176
     1
 40
1.0
176
     1
 90
        1
176
     1
 90
        6
176
     1
 90
        2
176
     1
 62
     7
176
     1
 90
        5
176
     1
 90
        0
176
     1
 90
        0
176
     1
290
     0
176
     1
 90
        1
176
     1
 40
0.0
176
     1
 90
        0
176
     1
290
     0
176
     1
290
     1
176
     1
290
     1
176
     1
290
     0
176
     1
290
     0
176
     1
290
     0
176
     1
290
     0
176
     1
290
     0
176
     1
290
     0
176
     1
 90
       50
176
     1
 40
0.0
176
     1
 40
1.0
176
     1
 90
        0
176
     1
 62
    18
420
        0
176
     1
 90
       50
176
     1
 90
        3
176
     1
 62
     5
420
      255
176
     1
290
     0
176
     1
 90
       50
176
     1
 90
       50
176
     1
 90
       50
176
     1
290
     0
176
     1
 90
       50
176
     1
 62
   256
176
     0
 40
1.0
176
     0
 90
        2
176
     1
  1
strokes_ogs.tif
176
     1
290
     0
176
     1
 40
1.0
176
     1
 40
1.0
176
     1
  0
VISUALSTYLE
  5
2A0
102
{ACAD_REACTORS
330
33
102
}
330
33
100
AcDbVisualStyle
  2
Brighten
 70
    12
177
     3
291
     1
 70
    58
 90
        2
176
     1
 90
        2
176
     1
 90
        0
176
     1
 90
        0
176
     1
 40
0.6
176
     1
 40
30.0
176
     1
 62
     7
420
 16777215
176
     1
 90
        1
176
     1
 90
        4
176
     1
 62
     7
176
     1
 62
   257
176
     1
 90
        1
176
     1
 90
        1
176
     1
 40
1.0
176
     1
 90
        8
176
     1
 62
     7
176
     1
 40
1.0
176
     1
 90
        1
176
     1
 90
        6
176
     1
 90
        2
176
     1
 62
     7
176
     1
 90
        5
176
     1
 90
        0
176
     1
 90
        0
176
     1
290
     0
176
     1
 90
        1
176
     1
 40
50.0
176
     1
 90
        0
176
     1
290
     0
176
     1
290
     1
176
     1
290
     1
176
     1
290
     0
176
     1
290
     0
176
     1
290
     0
176
     1
290
     0
176
     1
290
     0
176
     1
290
     0
176
     1
 90
       50
176
     1
 40
0.0
176
     1
 40
1.0
176
     1
 90
        0
176
     1
 62
    18
420
        0
176
     1
 90
       50
176
     1
 90
        3
176
     1
 62
     5
420
      255
176
     1
290
     0
176
     1
 90
       50
176
     1
 90
       50
176
     1
 90
       50
176
     1
290
     0
176
     1
 90
       50
176
     1
 62
   256
176
     0
 40
1.0
176
     0
 90
        2
176
     1
  1
strokes_ogs.tif
176
     1
290
     0
176
     1
 40
1.0
176
     1
 40
1.0
176
     1
  0
VISUALSTYLE
  5
2A4
102
{ACAD_REACTORS
330
33
102
}
330
33
100
AcDbVisualStyle
  2
ColorChange
 70
    16
177
     3
291
     1
 70
    58
 90
        2
176
     1
 90
        2
176
     1
 90
        3
176
     1
 90
        0
176
     1
 40
0.6
176
     1
 40
30.0
176
     1
 62
     8
420
  8421504
176
     1
 90
        1
176
     1
 90
        4
176
     1
 62
     7
176
     1
 62
   257
176
     1
 90
        1
176
     1
 90
        1
176
     1
 40
1.0
176
     1
 90
        8
176
     1
 62
     8
420
  8421504
176
     1
 40
1.0
176
     1
 90
        1
176
     1
 90
        6
176
     1
 90
        2
176
     1
 62
     7
176
     1
 90
        5
176
     1
 90
        0
176
     1
 90
        0
176
     1
290
     0
176
     1
 90
        1
176
     1
 40
0.0
176
     1
 90
        0
176
     1
290
     0
176
     1
290
     1
176
     1
290
     1
176
     1
290
     0
176
     1
290
     0
176
     1
290
     0
176
     1
290
     0
176
     1
290
     0
176
     1
290
     0
176
     1
 90
       50
176
     1
 40
0.0
176
     1
 40
1.0
176
     1
 90
        0
176
     1
 62
    18
420
        0
176
     1
 90
       50
176
     1
 90
        3
176
     1
 62
     5
420
      255
176
     1
290
     0
176
     1
 90
       50
176
     1
 90
       50
176
     1
 90
       50
176
     1
290
     0
176
     1
 90
       50
176
     1
 62
   256
176
     0
 40
1.0
176
     0
 90
        2
176
     1
  1
strokes_ogs.tif
176
     1
290
     0
176
     1
 40
1.0
176
     1
 40
1.0
176
     1
  0
VISUALSTYLE
  5
29E
102
{ACAD_REACTORS
330
33
102
}
330
33
100
AcDbVisualStyle
  2
Conceptual
 70
     9
177
     3
291
     0
 70
    58
 90
        3
176
     1
 90
        2
176
     1
 90
        0
176
     1
 90
        0
176
     1
 40
0.6
176
     1
 40
30.0
176
     1
 62
     7
420
 16777215
176
     1
 90
        2
176
     1
 90
        2
176
     1
 62
     7
176
     1
 62
   257
176
     1
 90
        1
176
     1
 90
        1
176
     1
 40
179.0
176
     1
 90
        8
176
     1
 62
     7
176
     1
 40
1.0
176
     1
 90
        1
176
     1
 90
        6
176
     1
 90
        2
176
     1
 62
     7
176
     1
 90
        3
176
     1
 90
        0
176
     1
 90
        0
176
     1
290
     0
176
     1
 90
        1
176
     1
 40
0.0
176
     1
 90
        0
176
     1
290
     0
176
     1
290
     1
176
     1
290
     1
176
     1
290
     0
176
     1
290
     0
176
     1
290
     0
176
     1
290
     0
176
     1
290
     0
176
     1
290
     0
176
     1
 90
       50
176
     1
 40
0.0
176
     1
 40
1.0
176
     1
 90
        0
176
     1
 62
    18
420
        0
176
     1
 90
       50
176
     1
 90
        3
176
     1
 62
     5
420
      255
176
     1
290
     0
176
     1
 90
       50
176
     1
 90
       50
176
     1
 90
       50
176
     1
290
     0
176
     1
 90
       50
176
     1
 62
   256
176
     0
 40
1.0
176
     0
 90
        2
176
     1
  1
strokes_ogs.tif
176
     1
290
     0
176
     1
 40
1.0
176
     1
 40
1.0
176
     1
  0
VISUALSTYLE
  5
29F
102
{ACAD_REACTORS
330
33
102
}
330
33
100
AcDbVisualStyle
  2
Dim
 70
    11
177
     3
291
     1
 70
    58
 90
        2
176
     1
 90
        2
176
     1
 90
        0
176
     1
 90
        0
176
     1
 40
0.6
176
     1
 40
30.0
176
     1
 62
     7
420
 16777215
176
     1
 90
        1
176
     1
 90
        4
176
     1
 62
     7
176
     1
 62
   257
176
     1
 90
        1
176
     1
 90
        1
176
     1
 40
1.0
176
     1
 90
        8
176
     1
 62
     7
176
     1
 40
1.0
176
     1
 90
        1
176
     1
 90
        6
176
     1
 90
        2
176
     1
 62
     7
176
     1
 90
        5
176
     1
 90
        0
176
     1
 90
        0
176
     1
290
     0
176
     1
 90
        1
176
     1
 40
-50.0
176
     1
 90
        0
176
     1
290
     0
176
     1
290
     1
176
     1
290
     1
176
     1
290
     0
176
     1
290
     0
176
     1
290
     0
176
     1
290
     0
176
     1
290
     0
176
     1
290
     0
176
     1
 90
       50
176
     1
 40
0.0
176
     1
 40
1.0
176
     1
 90
        0
176
     1
 62
    18
420
        0
176
     1
 90
       50
176
     1
 90
        3
176
     1
 62
     5
420
      255
176
     1
290
     0
176
     1
 90
       50
176
     1
 90
       50
176
     1
 90
       50
176
     1
290
     0
176
     1
 90
       50
176
     1
 62
   256
176
     0
 40
1.0
176
     0
 90
        2
176
     1
  1
strokes_ogs.tif
176
     1
290
     0
176
     1
 40
1.0
176
     1
 40
1.0
176
     1
  0
VISUALSTYLE
  5
1AE
102
{ACAD_REACTORS
330
33
102
}
330
33
100
AcDbVisualStyle
  2
EdgeColorOff
 70
    22
177
     3
291
     1
 70
    58
 90
        2
176
     0
 90
        2
176
     0
 90
        0
176
     0
 90
        0
176
     0
 40
0.6
176
     0
 40
30.0
176
     0
 62
     7
420
 16777215
176
     0
 90
        1
176
     0
 90
        4
176
     0
 62
     7
176
     0
 62
   257
176
     0
 90
        1
176
     0
 90
        1
176
     0
 40
1.0
176
     0
 90
        8
176
     2
 62
     7
176
     0
 40
1.0
176
     0
 90
        1
176
     0
 90
        6
176
     0
 90
        2
176
     0
 62
     7
176
     0
 90
        5
176
     0
 90
        0
176
     0
 90
        0
176
     0
290
     0
176
     0
 90
        1
176
     0
 40
0.0
176
     0
 90
        0
176
     0
290
     0
176
     0
290
     1
176
     0
290
     1
176
     0
290
     0
176
     0
290
     0
176
     0
290
     0
176
     0
290
     0
176
     0
290
     0
176
     0
290
     0
176
     0
 90
       50
176
     0
 40
0.0
176
     0
 40
1.0
176
     0
 90
        0
176
     0
 62
    18
420
        0
176
     0
 90
       50
176
     0
 90
        3
176
     0
 62
     5
420
      255
176
     0
290
     0
176
     0
 90
       50
176
     0
 90
       50
176
     0
 90
       50
176
     0
290
     0
176
     0
 90
       50
176
     0
 62
   256
176
     0
 40
1.0
176
     0
 90
        2
176
     0
  1
strokes_ogs.tif
176
     0
290
     0
176
     0
 40
1.0
176
     0
 40
1.0
176
     0
  0
VISUALSTYLE
  5
2A3
102
{ACAD_REACTORS
330
33
102
}
330
33
100
AcDbVisualStyle
  2
Facepattern
 70
    15
177
     3
291
     1
 70
    58
 90
        2
176
     1
 90
        2
176
     1
 90
        0
176
     1
 90
        0
176
     1
 40
0.6
176
     1
 40
30.0
176
     1
 62
     7
420
 16777215
176
     1
 90
        1
176
     1
 90
        4
176
     1
 62
     7
176
     1
 62
   257
176
     1
 90
        1
176
     1
 90
        1
176
     1
 40
1.0
176
     1
 90
        8
176
     1
 62
     7
176
     1
 40
1.0
176
     1
 90
        1
176
     1
 90
        6
176
     1
 90
        2
176
     1
 62
     7
176
     1
 90
        5
176
     1
 90
        0
176
     1
 90
        0
176
     1
290
     0
176
     1
 90
        1
176
     1
 40
0.0
176
     1
 90
        0
176
     1
290
     0
176
     1
290
     1
176
     1
290
     1
176
     1
290
     0
176
     1
290
     0
176
     1
290
     0
176
     1
290
     0
176
     1
290
     0
176
     1
290
     0
176
     1
 90
       50
176
     1
 40
0.0
176
     1
 40
1.0
176
     1
 90
        0
176
     1
 62
    18
420
        0
176
     1
 90
       50
176
     1
 90
        3
176
     1
 62
     5
420
      255
176
     1
290
     0
176
     1
 90
       50
176
     1
 90
       50
176
     1
 90
       50
176
     1
290
     0
176
     1
 90
       50
176
     1
 62
   256
176
     0
 40
1.0
176
     0
 90
        2
176
     1
  1
strokes_ogs.tif
176
     1
290
     0
176
     1
 40
1.0
176
     1
 40
1.0
176
     1
  0
VISUALSTYLE
  5
298
102
{ACAD_REACTORS
330
33
102
}
330
33
100
AcDbVisualStyle
  2
Flat
 70
     0
177
     3
291
     1
 70
    58
 90
        2
176
     1
 90
        1
176
     1
 90
        1
176
     1
 90
        2
176
     1
 40
0.6
176
     1
 40
30.0
176
     1
 62
     7
420
 16777215
176
     1
 90
        0
176
     1
 90
        0
176
     1
 62
     7
176
     1
 62
   257
176
     1
 90
        1
176
     1
 90
        1
176
     1
 40
1.0
176
     1
 90
        8
176
     1
 62
     7
176
     1
 40
1.0
176
     1
 90
        1
176
     1
 90
        6
176
     1
 90
        2
176
     1
 62
     7
176
     1
 90
        5
176
     1
 90
        0
176
     1
 90
        0
176
     1
290
     0
176
     1
 90
       13
176
     1
 40
0.0
176
     1
 90
        0
176
     1
290
     0
176
     1
290
     1
176
     1
290
     1
176
     1
290
     0
176
     1
290
     0
176
     1
290
     0
176
     1
290
     0
176
     1
290
     0
176
     1
290
     0
176
     1
 90
       50
176
     1
 40
0.0
176
     1
 40
1.0
176
     1
 90
        0
176
     1
 62
    18
420
        0
176
     1
 90
       50
176
     1
 90
        3
176
     1
 62
     5
420
      255
176
     1
290
     0
176
     1
 90
       50
176
     1
 90
       50
176
     1
 90
       50
176
     1
290
     0
176
     1
 90
       50
176
     1
 62
   256
176
     0
 40
1.0
176
     0
 90
        2
176
     1
  1
strokes_ogs.tif
176
     1
290
     0
176
     1
 40
1.0
176
     1
 40
1.0
176
     1
  0
VISUALSTYLE
  5
299
102
{ACAD_REACTORS
330
33
102
}
330
33
100
AcDbVisualStyle
  2
FlatWithEdges
 70
     1
177
     3
291
     1
 70
    58
 90
        2
176
     1
 90
        1
176
     1
 90
        1
176
     1
 90
        2
176
     1
 40
0.6
176
     1
 40
30.0
176
     1
 62
     7
420
 16777215
176
     1
 90
        1
176
     1
 90
        0
176
     1
 62
     7
176
     1
 62
   257
176
     1
 90
        1
176
     1
 90
        1
176
     1
 40
1.0
176
     1
 90
        0
176
     1
 62
   257
176
     1
 40
1.0
176
     1
 90
        1
176
     1
 90
        6
176
     1
 90
        2
176
     1
 62
     7
176
     1
 90
        5
176
     1
 90
        0
176
     1
 90
        0
176
     1
290
     0
176
     1
 90
       13
176
     1
 40
0.0
176
     1
 90
        0
176
     1
290
     0
176
     1
290
     1
176
     1
290
     1
176
     1
290
     0
176
     1
290
     0
176
     1
290
     0
176
     1
290
     0
176
     1
290
     0
176
     1
290
     0
176
     1
 90
       50
176
     1
 40
0.0
176
     1
 40
1.0
176
     1
 90
        0
176
     1
 62
    18
420
        0
176
     1
 90
       50
176
     1
 90
        3
176
     1
 62
     5
420
      255
176
     1
290
     0
176
     1
 90
       50
176
     1
 90
       50
176
     1
 90
       50
176
     1
290
     0
176
     1
 90
       50
176
     1
 62
   256
176
     0
 40
1.0
176
     0
 90
        2
176
     1
  1
strokes_ogs.tif
176
     1
290
     0
176
     1
 40
1.0
176
     1
 40
1.0
176
     1
  0
VISUALSTYLE
  5
29A
102
{ACAD_REACTORS
330
33
102
}
330
33
100
AcDbVisualStyle
  2
Gouraud
 70
     2
177
     3
291
     1
 70
    58
 90
        2
176
     1
 90
        2
176
     1
 90
        1
176
     1
 90
        2
176
     1
 40
0.6
176
     1
 40
30.0
176
     1
 62
     7
420
 16777215
176
     1
 90
        0
176
     1
 90
        0
176
     1
 62
     7
176
     1
 62
   257
176
     1
 90
        1
176
     1
 90
        1
176
     1
 40
1.0
176
     1
 90
        0
176
     1
 62
     7
176
     1
 40
1.0
176
     1
 90
        1
176
     1
 90
        6
176
     1
 90
        2
176
     1
 62
     7
176
     1
 90
        5
176
     1
 90
        0
176
     1
 90
        0
176
     1
290
     0
176
     1
 90
       13
176
     1
 40
0.0
176
     1
 90
        0
176
     1
290
     0
176
     1
290
     1
176
     1
290
     1
176
     1
290
     0
176
     1
290
     0
176
     1
290
     0
176
     1
290
     0
176
     1
290
     0
176
     1
290
     0
176
     1
 90
       50
176
     1
 40
0.0
176
     1
 40
1.0
176
     1
 90
        0
176
     1
 62
    18
420
        0
176
     1
 90
       50
176
     1
 90
        3
176
     1
 62
     5
420
      255
176
     1
290
     0
176
     1
 90
       50
176
     1
 90
       50
176
     1
 90
       50
176
     1
290
     0
176
     1
 90
       50
176
     1
 62
   256
176
     0
 40
1.0
176
     0
 90
        2
176
     1
  1
strokes_ogs.tif
176
     1
290
     0
176
     1
 40
1.0
176
     1
 40
1.0
176
     1
  0
VISUALSTYLE
  5
29B
102
{ACAD_REACTORS
330
33
102
}
330
33
100
AcDbVisualStyle
  2
GouraudWithEdges
 70
     3
177
     3
291
     1
 70
    58
 90
        2
176
     1
 90
        2
176
     1
 90
        1
176
     1
 90
        2
176
     1
 40
0.6
176
     1
 40
30.0
176
     1
 62
     7
420
 16777215
176
     1
 90
        1
176
     1
 90
        0
176
     1
 62
     7
176
     1
 62
   257
176
     1
 90
        1
176
     1
 90
        1
176
     1
 40
1.0
176
     1
 90
        0
176
     1
 62
   257
176
     1
 40
1.0
176
     1
 90
        1
176
     1
 90
        6
176
     1
 90
        2
176
     1
 62
     7
176
     1
 90
        5
176
     1
 90
        0
176
     1
 90
        0
176
     1
290
     0
176
     1
 90
       13
176
     1
 40
0.0
176
     1
 90
        0
176
     1
290
     0
176
     1
290
     1
176
     1
290
     1
176
     1
290
     0
176
     1
290
     0
176
     1
290
     0
176
     1
290
     0
176
     1
290
     0
176
     1
290
     0
176
     1
 90
       50
176
     1
 40
0.0
176
     1
 40
1.0
176
     1
 90
        0
176
     1
 62
    18
420
        0
176
     1
 90
       50
176
     1
 90
        3
176
     1
 62
     5
420
      255
176
     1
290
     0
176
     1
 90
       50
176
     1
 90
       50
176
     1
 90
       50
176
     1
290
     0
176
     1
 90
       50
176
     1
 62
   256
176
     0
 40
1.0
176
     0
 90
        2
176
     1
  1
strokes_ogs.tif
176
     1
290
     0
176
     1
 40
1.0
176
     1
 40
1.0
176
     1
  0
VISUALSTYLE
  5
29D
102
{ACAD_REACTORS
330
33
102
}
330
33
100
AcDbVisualStyle
  2
Hidden
 70
     6
177
     3
291
     0
 70
    58
 90
        1
176
     1
 90
        2
176
     1
 90
        2
176
     1
 90
        0
176
     1
 40
0.6
176
     1
 40
30.0
176
     1
 62
     7
420
 16777215
176
     1
 90
        2
176
     1
 90
        2
176
     1
 62
     7
176
     1
 62
   257
176
     1
 90
        2
176
     1
 90
        1
176
     1
 40
40.0
176
     1
 90
        0
176
     1
 62
   257
176
     1
 40
1.0
176
     1
 90
        1
176
     1
 90
        6
176
     1
 90
        2
176
     1
 62
     7
176
     1
 90
        3
176
     1
 90
        0
176
     1
 90
        0
176
     1
290
     0
176
     1
 90
        1
176
     1
 40
0.0
176
     1
 90
        0
176
     1
290
     0
176
     1
290
     1
176
     1
290
     1
176
     1
290
     0
176
     1
290
     0
176
     1
290
     0
176
     1
290
     0
176
     1
290
     0
176
     1
290
     0
176
     1
 90
       50
176
     1
 40
0.0
176
     1
 40
1.0
176
     1
 90
        0
176
     1
 62
    18
420
        0
176
     1
 90
       50
176
     1
 90
        3
176
     1
 62
     5
420
      255
176
     1
290
     0
176
     1
 90
       50
176
     1
 90
       50
176
     1
 90
       50
176
     1
290
     0
176
     1
 90
       50
176
     1
 62
   256
176
     0
 40
1.0
176
     0
 90
        2
176
     1
  1
strokes_ogs.tif
176
     1
290
     0
176
     1
 40
1.0
176
     1
 40
1.0
176
     1
  0
VISUALSTYLE
  5
2AA
102
{ACAD_REACTORS
330
33
102
}
330
33
100
AcDbVisualStyle
  2
JitterOff
 70
    20
177
     3
291
     1
 70
    58
 90
        2
176
     0
 90
        2
176
     0
 90
        0
176
     0
 90
        0
176
     0
 40
0.6
176
     0
 40
30.0
176
     0
 62
     7
420
 16777215
176
     0
 90
        1
176
     0
 90
        4
176
     0
 62
     7
176
     0
 62
   257
176
     0
 90
        1
176
     0
 90
        1
176
     0
 40
1.0
176
     0
 90
       10
176
     2
 62
     7
176
     0
 40
1.0
176
     0
 90
        1
176
     0
 90
        6
176
     0
 90
        2
176
     0
 62
     7
176
     0
 90
        5
176
     0
 90
        0
176
     0
 90
        0
176
     0
290
     0
176
     0
 90
        1
176
     0
 40
0.0
176
     0
 90
        0
176
     0
290
     0
176
     0
290
     1
176
     0
290
     1
176
     0
290
     0
176
     0
290
     0
176
     0
290
     0
176
     0
290
     0
176
     0
290
     0
176
     0
290
     0
176
     0
 90
       50
176
     0
 40
0.0
176
     0
 40
1.0
176
     0
 90
        0
176
     0
 62
    18
420
        0
176
     0
 90
       50
176
     0
 90
        3
176
     0
 62
     5
420
      255
176
     0
290
     0
176
     0
 90
       50
176
     0
 90
       50
176
     0
 90
       50
176
     0
290
     0
176
     0
 90
       50
176
     0
 62
   256
176
     0
 40
1.0
176
     0
 90
        2
176
     0
  1
strokes_ogs.tif
176
     0
290
     0
176
     0
 40
1.0
176
     0
 40
1.0
176
     0
  0
VISUALSTYLE
  5
2A2
102
{ACAD_REACTORS
330
33
102
}
330
33
100
AcDbVisualStyle
  2
Linepattern
 70
    14
177
     3
291
     1
 70
    58
 90
        2
176
     1
 90
        2
176
     1
 90
        0
176
     1
 90
        0
176
     1
 40
0.6
176
     1
 40
30.0
176
     1
 62
     7
420
 16777215
176
     1
 90
        1
176
     1
 90
        4
176
     1
 62
     7
176
     1
 62
   257
176
     1
 90
        7
176
     1
 90
        7
176
     1
 40
1.0
176
     1
 90
        8
176
     1
 62
     7
176
     1
 40
1.0
176
     1
 90
        1
176
     1
 90
        6
176
     1
 90
        2
176
     1
 62
     7
176
     1
 90
        5
176
     1
 90
        0
176
     1
 90
        0
176
     1
290
     0
176
     1
 90
        1
176
     1
 40
0.0
176
     1
 90
        0
176
     1
290
     0
176
     1
290
     1
176
     1
290
     1
176
     1
290
     0
176
     1
290
     0
176
     1
290
     0
176
     1
290
     0
176
     1
290
     0
176
     1
290
     0
176
     1
 90
       50
176
     1
 40
0.0
176
     1
 40
1.0
176
     1
 90
        0
176
     1
 62
    18
420
        0
176
     1
 90
       50
176
     1
 90
        3
176
     1
 62
     5
420
      255
176
     1
290
     0
176
     1
 90
       50
176
     1
 90
       50
176
     1
 90
       50
176
     1
290
     0
176
     1
 90
       50
176
     1
 62
   256
176
     0
 40
1.0
176
     0
 90
        2
176
     1
  1
strokes_ogs.tif
176
     1
290
     0
176
     1
 40
1.0
176
     1
 40
1.0
176
     1
  0
VISUALSTYLE
  5
2AB
102
{ACAD_REACTORS
330
33
102
}
330
33
100
AcDbVisualStyle
  2
OverhangOff
 70
    21
177
     3
291
     1
 70
    58
 90
        2
176
     0
 90
        2
176
     0
 90
        0
176
     0
 90
        0
176
     0
 40
0.6
176
     0
 40
30.0
176
     0
 62
     7
420
 16777215
176
     0
 90
        1
176
     0
 90
        4
176
     0
 62
     7
176
     0
 62
   257
176
     0
 90
        1
176
     0
 90
        1
176
     0
 40
1.0
176
     0
 90
        9
176
     2
 62
     7
176
     0
 40
1.0
176
     0
 90
        1
176
     0
 90
        6
176
     0
 90
        2
176
     0
 62
     7
176
     0
 90
        5
176
     0
 90
        0
176
     0
 90
        0
176
     0
290
     0
176
     0
 90
        1
176
     0
 40
0.0
176
     0
 90
        0
176
     0
290
     0
176
     0
290
     1
176
     0
290
     1
176
     0
290
     0
176
     0
290
     0
176
     0
290
     0
176
     0
290
     0
176
     0
290
     0
176
     0
290
     0
176
     0
 90
       50
176
     0
 40
0.0
176
     0
 40
1.0
176
     0
 90
        0
176
     0
 62
    18
420
        0
176
     0
 90
       50
176
     0
 90
        3
176
     0
 62
     5
420
      255
176
     0
290
     0
176
     0
 90
       50
176
     0
 90
       50
176
     0
 90
       50
176
     0
290
     0
176
     0
 90
       50
176
     0
 62
   256
176
     0
 40
1.0
176
     0
 90
        2
176
     0
  1
strokes_ogs.tif
176
     0
290
     0
176
     0
 40
1.0
176
     0
 40
1.0
176
     0
  0
VISUALSTYLE
  5
60
102
{ACAD_REACTORS
330
33
102
}
330
33
100
AcDbVisualStyle
  2
Realistic
 70
     8
177
     3
291
     0
 70
    58
 90
        2
176
     1
 90
        3
176
     1
 90
        0
176
     1
 90
        2
176
     1
 40
0.6
176
     1
 40
30.0
176
     1
 62
     7
420
 16777215
176
     1
 90
        0
176
     1
 90
        0
176
     1
 62
     7
176
     1
 62
   257
176
     1
 90
        1
176
     1
 90
        1
176
     1
 40
1.0
176
     1
 90
        8
176
     1
 62
   257
176
     1
 40
1.0
176
     1
 90
        1
176
     1
 90
        6
176
     1
 90
        2
176
     1
 62
     7
176
     1
 90
        3
176
     1
 90
        0
176
     1
 90
        0
176
     1
290
     0
176
     1
 90
       13
176
     1
 40
0.0
176
     1
 90
        0
176
     1
290
     0
176
     1
290
     1
176
     1
290
     1
176
     1
290
     0
176
     1
290
     0
176
     1
290
     0
176
     1
290
     0
176
     1
290
     0
176
     1
290
     0
176
     1
 90
       50
176
     1
 40
0.0
176
     1
 40
1.0
176
     1
 90
        0
176
     1
 62
    18
420
        0
176
     1
 90
       50
176
     1
 90
        3
176
     1
 62
     5
420
      255
176
     1
290
     0
176
     1
 90
       50
176
     1
 90
       50
176
     1
 90
       50
176
     1
290
     0
176
     1
 90
       50
176
     1
 62
   256
176
     0
 40
1.0
176
     0
 90
        2
176
     1
  1
strokes_ogs.tif
176
     1
290
     0
176
     1
 40
1.0
176
     1
 40
1.0
176
     1
  0
VISUALSTYLE
  5
2A9
102
{ACAD_REACTORS
330
33
102
}
330
33
100
AcDbVisualStyle
  2
Shaded
 70
    27
177
     3
291
     0
 70
    58
 90
        2
176
     1
 90
        2
176
     1
 90
        1
176
     1
 90
        2
176
     1
 40
0.6
176
     1
 40
30.0
176
     1
 62
     7
420
 16777215
176
     1
 90
        0
176
     1
 90
        4
176
     1
 62
     7
176
     1
 62
   257
176
     1
 90
        1
176
     1
 90
        1
176
     1
 40
1.0
176
     1
 90
        8
176
     1
 62
   257
176
     1
 40
1.0
176
     1
 90
        1
176
     1
 90
        6
176
     1
 90
        2
176
     1
 62
     8
420
  7895160
176
     1
 90
        3
176
     1
 90
        0
176
     1
 90
        0
176
     1
290
     0
176
     1
 90
        5
176
     1
 40
0.0
176
     1
 90
        0
176
     1
290
     0
176
     1
290
     1
176
     1
290
     1
176
     1
290
     0
176
     1
290
     0
176
     1
290
     0
176
     1
290
     0
176
     1
290
     0
176
     1
290
     0
176
     1
 90
       50
176
     1
 40
0.0
176
     1
 40
1.0
176
     1
 90
        0
176
     1
 62
    18
420
        0
176
     1
 90
       50
176
     1
 90
        3
176
     1
 62
     5
420
      255
176
     1
290
     0
176
     1
 90
       50
176
     1
 90
       50
176
     1
 90
       50
176
     1
290
     0
176
     1
 90
       50
176
     1
 62
   256
176
     0
 40
1.0
176
     0
 90
        2
176
     1
  1
strokes_ogs.tif
176
     1
290
     0
176
     1
 40
1.0
176
     1
 40
1.0
176
     1
  0
VISUALSTYLE
  5
2A8
102
{ACAD_REACTORS
330
33
102
}
330
33
100
AcDbVisualStyle
  2
Shaded with edges
 70
    26
177
     3
291
     0
 70
    58
 90
        2
176
     1
 90
        2
176
     1
 90
        1
176
     1
 90
        2
176
     1
 40
0.6
176
     1
 40
30.0
176
     1
 62
     7
420
 16777215
176
     1
 90
        1
176
     1
 90
        2
176
     1
 62
     7
176
     1
 62
   257
176
     1
 90
        2
176
     1
 90
        1
176
     1
 40
1.0
176
     1
 90
        8
176
     1
 62
   257
176
     1
 40
1.0
176
     1
 90
        1
176
     1
 90
        6
176
     1
 90
        2
176
     1
 62
     7
176
     1
 90
        3
176
     1
 90
        0
176
     1
 90
        0
176
     1
290
     0
176
     1
 90
        5
176
     1
 40
0.0
176
     1
 90
        0
176
     1
290
     0
176
     1
290
     1
176
     1
290
     1
176
     1
290
     0
176
     1
290
     0
176
     1
290
     0
176
     1
290
     0
176
     1
290
     0
176
     1
290
     0
176
     1
 90
       50
176
     1
 40
0.0
176
     1
 40
1.0
176
     1
 90
        0
176
     1
 62
    18
420
        0
176
     1
 90
       50
176
     1
 90
        3
176
     1
 62
     5
420
      255
176
     1
290
     0
176
     1
 90
       50
176
     1
 90
       50
176
     1
 90
       50
176
     1
290
     0
176
     1
 90
       50
176
     1
 62
   256
176
     0
 40
1.0
176
     0
 90
        2
176
     1
  1
strokes_ogs.tif
176
     1
290
     0
176
     1
 40
1.0
176
     1
 40
1.0
176
     1
  0
VISUALSTYLE
  5
2A5
102
{ACAD_REACTORS
330
33
102
}
330
33
100
AcDbVisualStyle
  2
Shades of Gray
 70
    23
177
     3
291
     0
 70
    58
 90
        2
176
     1
 90
        2
176
     1
 90
        3
176
     1
 90
        0
176
     1
 40
0.6
176
     1
 40
30.0
176
     1
 62
     7
420
 16777215
176
     1
 90
        2
176
     1
 90
        2
176
     1
 62
     7
176
     1
 62
     7
176
     1
 90
        1
176
     1
 90
        1
176
     1
 40
40.0
176
     1
 90
        8
176
     1
 62
     7
176
     1
 40
1.0
176
     1
 90
        1
176
     1
 90
        6
176
     1
 90
        2
176
     1
 62
     7
176
     1
 90
        3
176
     1
 90
        0
176
     1
 90
        0
176
     1
290
     0
176
     1
 90
        1
176
     1
 40
0.0
176
     1
 90
        0
176
     1
290
     0
176
     1
290
     1
176
     1
290
     1
176
     1
290
     0
176
     1
290
     0
176
     1
290
     0
176
     1
290
     0
176
     1
290
     0
176
     1
290
     0
176
     1
 90
       50
176
     1
 40
0.0
176
     1
 40
1.0
176
     1
 90
        0
176
     1
 62
    18
420
        0
176
     1
 90
       50
176
     1
 90
        3
176
     1
 62
     5
420
      255
176
     1
290
     0
176
     1
 90
       50
176
     1
 90
       50
176
     1
 90
       50
176
     1
290
     0
176
     1
 90
       50
176
     1
 62
   256
176
     0
 40
1.0
176
     0
 90
        2
176
     1
  1
strokes_ogs.tif
176
     1
290
     0
176
     1
 40
1.0
176
     1
 40
1.0
176
     1
  0
VISUALSTYLE
  5
2A6
102
{ACAD_REACTORS
330
33
102
}
330
33
100
AcDbVisualStyle
  2
Sketchy
 70
    24
177
     3
291
     0
 70
    58
 90
        1
176
     1
 90
        2
176
     1
 90
        2
176
     1
 90
        0
176
     1
 40
0.6
176
     1
 40
30.0
176
     1
 62
     7
420
 16777215
176
     1
 90
        2
176
     1
 90
        2
176
     1
 62
     7
176
     1
 62
     7
176
     1
 90
        1
176
     1
 90
        1
176
     1
 40
40.0
176
     1
 90
       11
176
     1
 62
     7
176
     1
 40
1.0
176
     1
 90
        1
176
     1
 90
        6
176
     1
 90
        2
176
     1
 62
     7
176
     1
 90
        6
176
     1
 90
        0
176
     1
 90
        0
176
     1
290
     0
176
     1
 90
        1
176
     1
 40
0.0
176
     1
 90
        0
176
     1
290
     0
176
     1
290
     1
176
     1
290
     1
176
     1
290
     0
176
     1
290
     0
176
     1
290
     0
176
     1
290
     0
176
     1
290
     0
176
     1
290
     0
176
     1
 90
       50
176
     1
 40
0.0
176
     1
 40
1.0
176
     1
 90
        0
176
     1
 62
    18
420
        0
176
     1
 90
       50
176
     1
 90
        3
176
     1
 62
     5
420
      255
176
     1
290
     0
176
     1
 90
       50
176
     1
 90
       50
176
     1
 90
       50
176
     1
290
     0
176
     1
 90
       50
176
     1
 62
   256
176
     0
 40
1.0
176
     0
 90
        2
176
     1
  1
strokes_ogs.tif
176
     1
290
     0
176
     1
 40
1.0
176
     1
 40
1.0
176
     1
  0
VISUALSTYLE
  5
2A1
102
{ACAD_REACTORS
330
33
102
}
330
33
100
AcDbVisualStyle
  2
Thicken
 70
    13
177
     3
291
     1
 70
    58
 90
        2
176
     1
 90
        2
176
     1
 90
        0
176
     1
 90
        0
176
     1
 40
0.6
176
     1
 40
30.0
176
     1
 62
     7
420
 16777215
176
     1
 90
        1
176
     1
 90
        4
176
     1
 62
     7
176
     1
 62
   257
176
     1
 90
        1
176
     1
 90
        1
176
     1
 40
1.0
176
     1
 90
       12
176
     1
 62
     7
176
     1
 40
1.0
176
     1
 90
        1
176
     1
 90
        6
176
     1
 90
        2
176
     1
 62
     7
176
     1
 90
        5
176
     1
 90
        0
176
     1
 90
        0
176
     1
290
     0
176
     1
 90
        1
176
     1
 40
0.0
176
     1
 90
        0
176
     1
290
     0
176
     1
290
     1
176
     1
290
     1
176
     1
290
     0
176
     1
290
     0
176
     1
290
     0
176
     1
290
     0
176
     1
290
     0
176
     1
290
     0
176
     1
 90
       50
176
     1
 40
0.0
176
     1
 40
1.0
176
     1
 90
        0
176
     1
 62
    18
420
        0
176
     1
 90
       50
176
     1
 90
        3
176
     1
 62
     5
420
      255
176
     1
290
     0
176
     1
 90
       50
176
     1
 90
       50
176
     1
 90
       50
176
     1
290
     0
176
     1
 90
       50
176
     1
 62
   256
176
     0
 40
1.0
176
     0
 90
        2
176
     1
  1
strokes_ogs.tif
176
     1
290
     0
176
     1
 40
1.0
176
     1
 40
1.0
176
     1
  0
VISUALSTYLE
  5
61
102
{ACAD_REACTORS
330
33
102
}
330
33
100
AcDbVisualStyle
  2
Wireframe
 70
     5
177
     3
291
     0
 70
    58
 90
        0
176
     1
 90
        2
176
     1
 90
        0
176
     1
 90
        0
176
     1
 40
0.6
176
     1
 40
30.0
176
     1
 62
     7
420
 16777215
176
     1
 90
        1
176
     1
 90
        4
176
     1
 62
     7
176
     1
 62
   257
176
     1
 90
        1
176
     1
 90
        1
176
     1
 40
1.0
176
     1
 90
        0
176
     1
 62
   257
176
     1
 40
1.0
176
     1
 90
        1
176
     1
 90
        6
176
     1
 90
        2
176
     1
 62
     7
176
     1
 90
        3
176
     1
 90
        0
176
     1
 90
        0
176
     1
290
     0
176
     1
 90
        1
176
     1
 40
0.0
176
     1
 90
        0
176
     1
290
     0
176
     1
290
     1
176
     1
290
     1
176
     1
290
     0
176
     1
290
     0
176
     1
290
     0
176
     1
290
     0
176
     1
290
     0
176
     1
290
     0
176
     1
 90
       50
176
     1
 40
0.0
176
     1
 40
1.0
176
     1
 90
        0
176
     1
 62
    18
420
        0
176
     1
 90
       50
176
     1
 90
        3
176
     1
 62
     5
420
      255
176
     1
290
     0
176
     1
 90
       50
176
     1
 90
       50
176
     1
 90
       50
176
     1
290
     0
176
     1
 90
       50
176
     1
 62
   256
176
     0
 40
1.0
176
     0
 90
        2
176
     1
  1
strokes_ogs.tif
176
     1
290
     0
176
     1
 40
1.0
176
     1
 40
1.0
176
     1
  0
VISUALSTYLE
  5
2A7
102
{ACAD_REACTORS
330
33
102
}
330
33
100
AcDbVisualStyle
  2
X-Ray
 70
    25
177
     3
291
     0
 70
    58
 90
        2
176
     1
 90
        2
176
     1
 90
        1
176
     1
 90
        1
176
     1
 40
0.5
176
     1
 40
30.0
176
     1
 62
     7
420
 16777215
176
     1
 90
        1
176
     1
 90
        0
176
     1
 62
     7
176
     1
 62
   257
176
     1
 90
        1
176
     1
 90
        1
176
     1
 40
1.0
176
     1
 90
        8
176
     1
 62
     7
176
     1
 40
1.0
176
     1
 90
        1
176
     1
 90
        6
176
     1
 90
        2
176
     1
 62
     7
176
     1
 90
        3
176
     1
 90
        0
176
     1
 90
        0
176
     1
290
     0
176
     1
 90
       13
176
     1
 40
0.0
176
     1
 90
        0
176
     1
290
     0
176
     1
290
     1
176
     1
290
     1
176
     1
290
     0
176
     1
290
     0
176
     1
290
     0
176
     1
290
     0
176
     1
290
     0
176
     1
290
     0
176
     1
 90
       50
176
     1
 40
0.0
176
     1
 40
1.0
176
     1
 90
        0
176
     1
 62
    18
420
        0
176
     1
 90
       50
176
     1
 90
        3
176
     1
 62
     5
420
      255
176
     1
290
     0
176
     1
 90
       50
176
     1
 90
       50
176
     1
 90
       50
176
     1
290
     0
176
     1
 90
       50
176
     1
 62
   256
176
     0
 40
1.0
176
     0
 90
        2
176
     1
  1
strokes_ogs.tif
176
     1
290
     0
176
     1
 40
1.0
176
     1
 40
1.0
176
     1
  0
DICTIONARYVAR
  5
52
102
{ACAD_REACTORS
330
51
102
}
330
51
100
DictionaryVariables
280
     0
  1
1:1
  0
DICTIONARYVAR
  5
53
102
{ACAD_REACTORS
330
51
102
}
330
51
100
DictionaryVariables
280
     0
  1
STANDARD
  0
DICTIONARYVAR
  5
54
102
{ACAD_REACTORS
330
51
102
}
330
51
100
DictionaryVariables
280
     0
  1
STANDARD
  0
DICTIONARYVAR
  5
55
102
{ACAD_REACTORS
330
51
102
}
330
51
100
DictionaryVariables
280
     0
  1
Imperial24
  0
DICTIONARYVAR
  5
56
102
{ACAD_REACTORS
330
51
102
}
330
51
100
DictionaryVariables
280
     0
  1
Imperial24
  0
DICTIONARYVAR
  5
57
102
{ACAD_REACTORS
330
51
102
}
330
51
100
DictionaryVariables
280
     0
  1
2
  0
DICTIONARYVAR
  5
58
102
{ACAD_REACTORS
330
51
102
}
330
51
100
DictionaryVariables
280
     0
  1
1
  0
DICTIONARYVAR
  5
59
102
{ACAD_REACTORS
330
51
102
}
330
51
100
DictionaryVariables
280
     0
  1
250
  0
DICTIONARYVAR
  5
5A
102
{ACAD_REACTORS
330
51
102
}
330
51
100
DictionaryVariables
280
     0
  1
1
  0
DICTIONARYVAR
  5
5B
102
{ACAD_REACTORS
330
51
102
}
330
51
100
DictionaryVariables
280
     0
  1
15
  0
DICTIONARYVAR
  5
5C
102
{ACAD_REACTORS
330
51
102
}
330
51
100
DictionaryVariables
280
     0
  1
0
  0
DICTIONARYVAR
  5
5D
102
{ACAD_REACTORS
330
51
102
}
330
51
100
DictionaryVariables
280
     0
  1
0
  0
DICTIONARY
  5
1B
330
18
100
AcDbDictionary
280
     1
281
     1
  3
AcPublish_PlotSettingsOverride
360
1C
  0
DICTIONARY
  5
46
330
45
100
AcDbDictionary
280
     1
281
     1
  3
BUMPTILE
360
47
  3
DIFFUSETILE
360
48
  3
OPACITYTILE
360
49
  3
REFLECTIONTILE
360
4A
  3
REFRACTIONTILE
360
4B
  3
SPECULARTILE
360
4C
  0
DICTIONARY
  5
3E
330
3D
100
AcDbDictionary
280
     1
281
     1
  3
BUMPTILE
360
3F
  3
DIFFUSETILE
360
40
  3
OPACITYTILE
360
41
  3
REFLECTIONTILE
360
42
  3
REFRACTIONTILE
360
43
  3
SPECULARTILE
360
44
  0
DICTIONARY
  5
E
330
C
100
AcDbDictionary
280
     1
281
     1
  3
BUMPTILE
360
F
  3
DIFFUSETILE
360
10
  3
FBXASSET
360
11
  3
OPACITYTILE
360
12
  3
REFLECTIONTILE
360
13
  3
REFRACTIONTILE
360
14
  3
SPECULARTILE
360
15
  0
DICTIONARY
  5
2BD
330
5F
100
AcDbDictionary
280
     1
281
     1
  3
ACAD_ROUNDTRIP_2008_TABLESTYLE_CELLSTYLEMAP
360
2BE
  0
PLOTSETTINGS
  5
1C
102
{ACAD_REACTORS
330
1B
102
}
330
1B
100
AcDbPlotSettings
  1

  2
HP PSC 1500 series
  4
iso-a4
  6

 40
3.174999952316284
 41
1.756847977638244
 42
3.175003051757812
 43
14.298095703125
 44
210.0050811767578
 45
297.0000915527344
 46
5.491150019611978
 47
0.0
 48
25.02913430675562
 49
312.2515481972387
140
380.273442411175
141
555.8788479638413
142
1.0
143
1.264461446639067
 70
 12020
 72
     1
 73
     1
 74
     4
  7

 75
     0
147
0.7908505258566762
 76
     0
 77
     2
 78
   300
148
-25.02913430675562
149
-312.2515481972387
1001
ACAD_PSEXT
1000
HP PSC 1500 series
1000
HP PSC 1500 series
1000
MacBook Pro van B.T.B
1000

1070
     0
  0
XRECORD
  5
47
102
{ACAD_REACTORS
330
46
102
}
330
46
100
AcDbXrecord
280
     1
270
     1
271
     1
  0
XRECORD
  5
48
102
{ACAD_REACTORS
330
46
102
}
330
46
100
AcDbXrecord
280
     1
270
     1
271
     1
  0
XRECORD
  5
49
102
{ACAD_REACTORS
330
46
102
}
330
46
100
AcDbXrecord
280
     1
270
     1
271
     1
  0
XRECORD
  5
4A
102
{ACAD_REACTORS
330
46
102
}
330
46
100
AcDbXrecord
280
     1
270
     1
271
     1
  0
XRECORD
  5
4B
102
{ACAD_REACTORS
330
46
102
}
330
46
100
AcDbXrecord
280
     1
270
     1
271
     1
  0
XRECORD
  5
4C
102
{ACAD_REACTORS
330
46
102
}
330
46
100
AcDbXrecord
280
     1
270
     1
271
     1
  0
XRECORD
  5
3F
102
{ACAD_REACTORS
330
3E
102
}
330
3E
100
AcDbXrecord
280
     1
270
     1
271
     1
  0
XRECORD
  5
40
102
{ACAD_REACTORS
330
3E
102
}
330
3E
100
AcDbXrecord
280
     1
270
     1
271
     1
  0
XRECORD
  5
41
102
{ACAD_REACTORS
330
3E
102
}
330
3E
100
AcDbXrecord
280
     1
270
     1
271
     1
  0
XRECORD
  5
42
102
{ACAD_REACTORS
330
3E
102
}
330
3E
100
AcDbXrecord
280
     1
270
     1
271
     1
  0
XRECORD
  5
43
102
{ACAD_REACTORS
330
3E
102
}
330
3E
100
AcDbXrecord
280
     1
270
     1
271
     1
  0
XRECORD
  5
44
102
{ACAD_REACTORS
330
3E
102
}
330
3E
100
AcDbXrecord
280
     1
270
     1
271
     1
  0
XRECORD
  5
F
102
{ACAD_REACTORS
330
E
102
}
330
E
100
AcDbXrecord
280
     1
270
     1
271
     1
  0
XRECORD
  5
10
102
{ACAD_REACTORS
330
E
102
}
330
E
100
AcDbXrecord
280
     1
270
     1
271
     1
  0
XRECORD
  5
11
102
{ACAD_REACTORS
330
E
102
}
330
E
100
AcDbXrecord
280
     1
 70
     1
 90
-1506045146
 71
     1
  1
AC4F1000-FFDD-A2CD-20BE-F5C1FFFFFF2F
311
504B0304140006080800C970704CCAB1218CED000000A80100004F00000041433446313030302D384230442D413338322D383939392D4536393346414644324444422F4173736574446174612F446566696E6974696F6E4974657261746F7250726F706572746965732E62696EBD50B14EC33010350C200606A47E40075663
311
D769D2180921C7AE9958E003D0355CDB486E52D589583BF2D7705603FC01273DDFE9F9DDDDB33F19635F6350C9CE08473AAF293F618B87A67EADB7B803769198D0AD20DC5265ECDCCFA4943C57B6E04659C50B5D65DCE8DC53B88559E4E7A4BB24385CC310FA34F2B9893586002D7643BC2162DC31DD414FBB20DCA5A62BC6
311
523A12D8CF454C93362747C9E40701DEF7F78F1023F60FE2D7505949C74D562A5E6AADF9B2D09937DE29E72AF182B11B0E35C63F397925B9B28E2B592DB9CFED2C3DC07BE545BF1DD2D74C928D550B4D10528C16DEF6ED86E87F8B6F504B0304140006080800C970704CAC6535D2E800000030020000450000004143344631
311
3030302D384230442D413338322D383939392D4536393346414644324444422F4173736574446174612F496E7374616E636550726F706572746965732E62696EEB606060F80F0540260323103700495E20ED9E9A975A94991C9C9C919A9BA802147074367133343030D075737371D175347276D135327072D5753375367403
311
0323377684469016634313175723534B5D531313635D133323435D273727175D43736303673367674B47574BA032B0BD0C9A31FD87BE6A5CB107D24C40B1062086F1C134900F041FEC21AA1918041C1804C0426042C501C1C6CA026A84003803AB32A0205CC1076620AF0188A15A1F40691EA0102600852342066E0886C294
311
9D0E18622802985A41466B20A9F960CF02E481628B0F8883CB134B9233749D8A12F35252534032B40200504B0304140006080800C970704C88E57597CD3F0000904100006B00000041433446313030302D384230442D413338322D383939392D4536393346414644324444422F5265736F75726365732F4143344631303030
311
2D464644442D413243442D323042452D4635433146464646464632462F7468756D626E61696C2F302F67656E657269635F706E67355B773CD4FF1FBF73E71C0E67EF7576C9DEF3EC995D46C6A1EC5046649CBDF79E192942562825CE965D8A868C2842C8DE9FDFD1F7E7F138F7078FCF6B3F5FCFD7EBFDFEC41B1968919130
311
91804020321D6D7513FC77D8C5070EC3FFEE51B21F068154CC75D455CC028A3EA68992803810109FDDE5D5CEC5521B28A1B422BF80741695D5B529DA1C2D058AD2388BDA9F476F7C2CADC939304173DBF48A452BF8A700C0C70C3D121C1AA15A5270C22E2B9E28763651F7DA0D12CE11077B2ECD0D560B5E3DE2368B1E65C5
311
E1C87384A4CC5F2D9FB8BE39E9B77C753783A37998F5CEF1B4FEE553463245C9712270880DF339E0B882A6BA713D865F6F384C842D440934EF264F4A304F8DE4EEFA1E2BF5E2D91F5ADD9613D6E31DDB33ED31DB1D7916CAF091286EA3D31B9CFECB78BB0060245B943C4C040119FF780A74DD308BA9D028678674EB5504EC
311
F284EE814DAED07440BAF649BE4B55DA2890F4D73E2D489A59EE54FDB0A85B59F2F52C4858A02705C4815A792B0C4A996A2023ECB195073E115E3E3647F64243A8338F2000BCB58DA5692C7E7C3D413F963FEDF3CF00FBB0F831A9D51360FECA43819F527B89FA260EB63C5DA676830AA3626A3693B23F1A17A0DFFCE3EE16
311
4E31B5365EDF0C89EF64D8E38AB0BA9A1117D7C3A0EC44F44F4023095E80BA610DE336D0F99593A88BFC5306E72DF98F7FD132ED95878DF2964EA7E43071359FD83B2BDF9C6B5BDF768F0F3C0FC351199526F53D9460A34511F75D1B63E488178569472C91A94497807A3FD4A390C6558F26D416365C3656DE6E769DA9D8FC
311
73774E1709812842DD8EF96AED1960F79D21B395CDDFE6F92CB4EB962A4668C76990E2EF29798C8941D67DA50F4A5F947872460F1F6FDB794E8A29FD7AC0C0D6E0714339CE258FB17AE8535221E3464A10F29A0BE5EEECEFC5675926A89F49EB14E5711894F6586DB5754EB4D5DA9C6437EBA57DB97A24F8B8A8DB295FFD73
311
266CF57E82694DF5166DDF93573AFE9C9C5EB05F8FEF8E89E0A8917B0B3724DB7BEBB53252581EFC3E38166BA131A3A5B42FE2AD00A769BBFA4458D2DE7822F8C4F63D0B8E21B285AE13325F3410A435C648C9D91FDEB109E73CEDA7BC796961AF79175E1A3CE4C5E8B0D009B0C9E29EFD98BC8E97554E3D8D838424E270F7
311
685226E5AC268E021EDE3522D583E8F20C0BDE2959EF5BBFEEDAB32FE9A3ED0E39F211A86AA9DEBFC68182EDED132AB8BB794442D2D7EA9F4D8BFF52BC4D55BB165124EE90A42D101E67BBBB292FFB4F66DE5BF2300E44546757DA7CEF8932BFC9F92A0707953491A55C5A5ACEDABD9FA1AEA01BAC3DC5A24E22E7C4721349
311
3996EFBC369D086ED9397C9BA6C7F9855C7BD5E15BFC8C53DB3D2A4C5901A57ACD2FBDF4D1676E95338B2C2BCE65FDA4C64F5FEFDC7D9CA5AA1FCF11E193F2FDABF0F4916BF13FB916A224380E6462A9815F2300DC49CC4DF8D055CEF76462F4B7A7ACA7365C2707891370BC1D0AA6203C44CCAB47084FEC057F27FFCD57F8
311
9B8B9852459798A675C66BD7CE572CAF71FF7E6D7ECF7BF62CAB7B3F1107DCD04DC55A3F9961700286141C94A4F771FEB2BCDA2DDEE0CB0BAE402FF1DB0100F8E475DFFFC074DDB4498AB7D186A7654DDB1CB680D703D47CEB4E72F8CB13D86A4AA68116E26387B93FD6738779B34FEDB8E517EDF2BAF28D9BE93A1D3A1643
311
20E07D42E514725C29515FF361754213EDE06B079A2E99EB1CA82A02019EADEEB87B9AF005BD04BBCECB14AACD6B24EFBE482194A97DD32400685FF1FEF1544D1B14EFB1E7F08E6D2CD2AF52DE757F35F5E62332EE88EA26417AD5C3E0E319D68F25414E6D672BD4522B278C57D18F0113921C71D96527E091F00CEB15AE23
311
D24667369BD3CEFA10C7549D930890BA4366F4EBC55F01F746109F98ABCDD5A3EE06619C6AD78AB33E48E4C9BD21BF7478B385EC05C4F8987E2C1BFA0A60EBEDAA0AE0B015C2720ECE180FB6F2DEFBEB822D96338C9B63822183BBF52FB664A7AE57003AABCE512BF77E7E31BDA2E739AC4C131657DDFE5225E900FB56CC01
311
CDE808FA4A9C9DA16AC679656BB64796283D89812B8F91136AE18EE5EBBAF47A73BE3C153EB5D4CD491B4BFB4FE690A4CF9ABA08C0D8AA64220C438C96EA6CA80B58FE5761E697B3A292EB9FBDA502FA863E49FE694ADDFFF9D62C520BDD1A22014147A0903A05B9B729F54272EF83931FEEC057BFF8C8055C279EAC5C0011
311
804828734024F6CFA319C9CC6867C727184465CD9BB7ED386AFFD96B294A85E3802FAE47244602D8273615952B98C4F23F7EAE4463D9D638EEE374A20959E0FE519C4CFB0FBFE5DD80C2AA3F9DB961D1BDE57E67C9BB47B77FDD74EE3094F5DBBE3EBC1FBDB7393F5116263009E2EFE1AF9A221B2AE234C902BF70E9F280ED
311
23E73908361565964333A3F01D0B006AF32FB21AA1316744B489D5A198E85299241735BE559675130955C902A8ED761FC0DBE337A9F91919AF5CE32AF902ADF9AB2615E00E8A94586BA1A90839B61832FF1BFB76D2EFADE6DB1BA04CCAD3DA649E7E2A0219F592E22F2AD54847EEA8E42271011E9074F8F3DD9FBA6CDF88FF
311
C9FC7E811AD1CA8F4557CE4AFC7BBEDCF0114A48689F20A584520C74DA8127124B767E2FB91A6B186246727BE63C9445BAE02088D58B8EFDC0F1072407CD9B89A13F6303B4A928F593AD489B58E6869325790ADC406036C591729FE14021F94B7796BB11848D463536A092A26F077F94639F7CEEE2A724C66EC885F4A24F8B
311
8A0AC321F8FD149BA529460FAA34E4663C02D41FDF80BCA222D42F0ABFF8490F4FA74C673807C2051D8E467B47B616072860069A9A303ABA9B319D58404461401B0A0F9BE5E1E151C14BC33B32ABE03DDE91708DFAEB15E7C0D593C86BB7D7EC17BE56E57975F077BFD5525F3A1A361D584A75E08CF29FC7B44B2B3085014F
311
3A5A14517377C3F6B8F37E59514C3B12F8AACDEDDA4DFC49BE5710101534CD6FB6DE15B50F11A09472AABA727F0C49D9CB906B158030065F48EB3625E010CEC1D511D0053474B11E6A4F01C0D6EF1BED3A944FDEC70E0DDCDC756C86545910E0DAE3BE3AA9A404574C2995CD5CAF9549226BC94B4F4F0F5F9086F418F6B323
311
46464610D8BC7391D3C3A3CCF04CFC1FB2A3A3170E369511868F14EEA4E5E438CC73DB1F3248AA94B6B2FF33B222FF3D1E7BF146CAD229770158063BCE4F5391964DF62F7E52A7BE0EEA829C9E13C4C147D6F93FE59E111DAB5E4594D6F3CD1AD375EE039930EFE5AF2BB2D41C83C7DABD8C659BAFBE8FAB392CA634F3D15C
311
1D945DB4588D2B0824A4EC928AAC565557CA2F0DAA588CA5BE30B3A8004F7BF005E96CBF891D7F18112A3619FDF530DC8AA64954258E1811789B5189B49B4EB53F5F89F7D37523894F3EB57B373763C91E502F52CC99EB7BDDF933FC324C4FFC2561DFFA7339FAFDD0A4BFBE6D3A8FF9ED1FC4989813986460245896891318
311
1918F719CCF5A68B2EE9C1FF050E34E63107003B8120FA982C21B30A874E4F5E4B38D5A8290C4B8D9BE48A0BE31EA995BDC37AC6DE90BA17D259DEF53605D55922FEB1855D915B659FBEB350EE0DFB2F9F766E1C84CC8964B75D08667445EAB966015F63A18A9E0A325C1B3DC628C0D3CB60F767FA93CC65F25458BD23C3B3
311
12716E5F40E5858AC06EBA9AB14F95DB99147B832069201541D09A0D856E12C629CF32683760EE855537D1901988D5EBC156676C7DD51D7207CF3267AF1D76C2AD867315E44618015313A98B19941C696FED3461CAA9B5415F918556D7802EDACEFD6B2E45853A9735DFC9DBF7E440F9319F8B6805A973BCCDC76C069A9144
311
E51F187EDCC12FC31B5DEAAF0A76137199B106EC84ADA6B6EE697D4E6A96E007417F4E880E8B1E89B4BCE9D81EF611E2ED8F0C1A6C25F620FAFAAB656A7C42D464880E8AFAB0E0FC8EA38CA9A8AEEAEE3E4648BA4680270A89743CDD3E6C6CBF34B7B640EFA285ABC7EA0A1E28F3CC963D114A80123EE66D0AF7D5380EB419
311
09B605AB4765B709B808590458157E69BA1378FEC4B48CAF6A730E3BE3C5EF2DD1A5EAF94B1DDE50CEB55DDFD7EE9A16747FA4B223359FB1FCC69E1194892BABB93A1D5C4E807AC0EA2E30180811E77A2291F6E7F7FAA5E0F60215BC6024E48DE436C511F0628B8CA189982D4D83CCA17D305A7E923C37941CFDFDCD93ACAF
311
735EF5F0E61BBD3E6C41A59B242790D3A3BAC7064DCD89AA2E37214EC839820949D5CAA31E240D2948E48F690298974A96BA9A8432BC90F5071D6537C9666EA4564796B7AFFFA548077BEEA75F63083435074BA182F3699557397F71548383FDA8CA34D99B981E72835ECDA5DDDC151315173D05A21F651AAF8524E88209E2
311
E7A737ED1045800CE3390050BCFB8BE588DF111617874C62575039CA588EEFDEFEFE319B739DE2EDC147092A262611E159650E787917885EF08F1F51B8F2D8A71D60B58B190FEF9541A1BE94BC19FEA50784DA1419FE4B0FB51B8D36B5FF8E1286FD8AF42B91E59A5F1CC4D60174E764045FD8C57B18209B217F89A62252BD
311
20BE0E63E12B8E8F029FE19E0E8D0870F58721A557082250D5424F7909369376E41666C0EE77CD87CB283F661D5FB6D0DA023CB67320A20DC7BE661E9E1BFE5463085C557DA1FF9BE835733766C3D139F2CF9E2208873AD0EB4814DE9E6BF2CAF81614D4D43906ED1C05A3265CABBFE192770FC2F64F940CB6B17B5F166F13
311
3C9AEEAD2641807C3E69515171DD74C4A85311513D6EC9530B3B601B6BA3EBFF3B5C3D2F7D69765141E345F75433953D013ADDF8F6AA7DC3F4A7563FE5C7D367937E2900D7EAD0F9FC9A4A1A9B5BDF1FEF08532660C01C5D6DE22199AA774383E306DAB87E301ABB7D213887F9869D4942D0D71E94B27EDF216A318BD488D4
311
5DF84529EF575AF3C3938C0AAA0215B01994153E2054A0B894DA5C784980633AAD48576957CF4AEAEAFADC7C587368551C73DBE1E57C58AC713303A8BFC258BD04B51724459FF9E24C03A81E0E0679CEB9B348C0DC998FEB9C6D6EFA77D247CC8F92D3848599ED89A23218D0636465AD1CEEB7DC140D7426F83491C4E8E828
311
1C2FB35240918FFECE880CA2A42D70E8B20B34DF5221C7DB0CF90ECCB9C745B37A47E9B716FF7A97B7A252C1F3814DC7B1E1A7F72B8751D524EF7CAE45B0C73B3BE7D08ED39781B380DDFC9AA4A4749C9493DB5BAD07A6EA6C092FBD0E85DB004DF06B8C9D3089C5320187E4CE1846158C7EA7DDAE8AD9AFFF21AA3A1026BB
311
06A259845E8232DEE62811A4DA9CEAB3A4887320B76E2AE5615EAB7BDF738CBDD01F1E64064BC13D9EC53576751CA8CACD58B3CEB0E6CA585BD089B2A59B9FC101403387AADBDBE70586B93D64BF3AD4453EF9C3B6A93817E8346991798601344F79A83C51F3D50F7BF2683A3605F51A72449489E0EE6169C749C60B103565
311
1103AEE24D24E51A759C840DD3FC6504DA6FE107510E447B43461C79D22970B75DE5E1BD3007D1AFC619A4A4A69B5626AF5E9B8374E20677F77E2F8E73DF868E8BEC7EBA7B6A75EEF7205E1AB9486CB642741D6E03FF13FCCEDB1C4AC129886268B01CDF4B124AF797CF784F3C6DEC97A17D4B558070A0F1C04DA4FF9BDBF3
311
4159AEFE958479824B3F58EBD1E19088A2AFDE501B6F2052368A3FD0E650A179EFAB1561E1D27527077136E652676C3670F42DCB3352F48F6BC86D2C3B0051727E41A0A4DC6CE2BE9D47F5CAA2935A3C0539AF080665997194ABECD723B08129CC5B6B21D2E7D54CD4D12610E7E9FB8306771A89576C7A982002775ED44F3F
311
744CF21EEBB27A631671D921938AAEE3EB0D19CD1E083727F607823E817BF599DCED5394E37EEBC2E88782E638920CA641EF74D4CDFCDEF06F4278ECB18E31E7E9876F2D783C8BF429C75395F57E98C2B495A3DA077EB3AC3C158608B6B57FE3EA48484D9A480096FCEE0DE880950E7E5A5714131C5C41AAA29FD19AE81AC1
311
45FA1B9E85C7169A5AB837B213493DF7E9AA4B5FBF9CDEB36EBD21EF1181B7CF7366AB2A951D01E37AF4EB835D1BE8C117CFBE7625D2EBCDB0B20C5A4B45CED0BCDE3EE8DA9DA78C2E21DEAAFFD1197E463C33CC6A80FB785669B856EFF7A8CCCA2841B5A5369173320B1170C368B2748D81062EA0296E5E2D95D7667A4A46
311
D98A6FF475C76AAB0A8C8D45E226FAFC9FE0133EA9F60111F99CA81ACE03A1D14C89E8B0D69079C91464FA1D99E651D0EAF606F345C42A8A1AA9BA391031582B96D5B4176A77AADB01F12FD298A75DEEBB2C82F0B8650E880722F8DDD90C56A7A058E5FDEF1AC93545BA27367C76F5D8F9690CB6F8DAE141EDD7971F0FB548
311
A2AE435F224D6E5954CA155512F7332029D5A1230854B79F258EC5FFDB09F5F6343A8EB193229B7F7E79B3E48F8E183860B38C8269D1B53738FF1E0BACF6AADA6D4869E9DE708E79B5DADCC09B1BC76F649731CFAF59A83FD8BAE4C749D66FA87A3810D4D62FFE826FA400C0F325D2BC0F3CA35F5847B82A2ACC7961745C82
311
3E4D863D54460AF792CE6F79B5C7A33B25C3AEA6CDE15A919B6367D781E9D44F61BF828672594A3E1D9EDD6DF179A81F27EAC05B936575D73E05C209DDD2115CFB705DF9BBF3C911589B3640735E9E618FC9C36A7326C82B2205E244C55D56FDB9D5DC93CE958D4BF8174D2B3DA54CB3C09F2C2A6DFF73D23B2197355761AD
311
421EC581284A7EF8DE2CE3497C0C804D49B41DFD6A7360844E5BEFFB495CFCDB97A4595911CDBA623274CE852B5E278AF0BEB1770E9D37CD977B2766A7DED0E94B840E1E95E8C77DE5CB6354AF7871427C28ADBEEF7BA0A28E19DE9ACD75F379FE373EAE6DDDAE3834692F9C2B03B4FCA8FCA9ABE8EEEBEBB725B88A7C9094
311
1E850682CA04061A7DF0CE82ED49BFAFFD42C309818FAE14755CAAE78B0F73243ECCCAD7DF58FCB9CDFAE7A4D3E6671A613639130D056C8383C8F4FCF4808C331E544DD26E4755D09EA05253B3049A1E32587CC25D72E073E2CD96D04A71BBCB0038FEC3F53D254199C3CDC67CD66640269431860225392B2CB3ECD0B4498A
311
AE78BA1994246AE1EE78F2EDFB79F6C6CB6B5E279C4D373FBC21CB2698C9ACBBEB6A4BB6B39E16AB0E421CCBFC7654D81ED86022F9BB522146F9F4772E2D0E4FA70120C95A85A417BF5078B232F4754363EB1750B2AC2148EB46B1EA72AD9B4D23ADCBC589D70106C3EC2ABEEED84DFE28E718C6C83502C28E9FDD3B09DA0A
311
6F6F7B72B706A31C9E2A331EE70DA56A083D2177BFD63C55B11D8D949FAFCF90B23A1E24B9B5018B9A17E99F2890EC302F330FE7936E2C23F0D237EC8916F5166AB84B62A21BB0B950146962D754F92CC2C8877BED8FC7B7B25726DD19545392570B3A2C66B58F027BEF412E552D12A588C4A3CC5C3193FCB3485EFFF700D0
311
B9EEC077754A33DC1FB9E25AF814628F91DDFECB667D3F7690803F38D13F8AE39353523BB08FC6760144AFA2CE28236F65EDBB3D5F59A57D612B99E3D7E5F8A851666BF9B5A6658EFC96EEB37A378ABB0EB3FDDF1303AF32C41BD1C8560745D7BD81066B0D6313359CF488563D3BA3F8E2185D1FAA3EBA1397C9D0E3DD2321
311
80A4DCADB6AF25DB3AC3CC26589C8239E66E81547BC7E2F328F9884764CA37EB5DBE390DFC03A5246B456A7C3684C4377D0EEF9A350680FA9A077E8B2957B489E09AB1AD41316944C2254B5984830F691C93CAA767EECF976FA5647538830B5E63236A6F0365C1E0F3E327F24FE35EDDBD7360B0F7374837409F7A6311BECC
311
12B7026D4FA1AE204FA3F5FE904B1F420C7A9044AE58E403E7C4848E7DA25DC9EDAC79DD756FAA26B9EA83ACE8A214A2612A22AFA19DAE7DBAC5F8CDE1292A485F98DAC731A29FE01A3966E96BCB9FB5A4C8830E1B9AF0C54B87FBE221A097036E5D28D1F869F810C06A9BB0AC0612F69AEBAF893C6E7AD59460208BAB3A6B
311
09CA4F6BDDAB8CF0D1F84B72487498395A70DCD754796E271099A567A55CF242BBED64696378BB6CF25EF0FCDB589F3A82F1116D010A9AB9FA4358809EE0C973A2B4229BAA876A70B03AB49CBA7FBE71DB1832FFD32F9BF2C8E98075CACAFB36921235D0F552B6A67E94E094097A5D7DF681B40623DA535ADA7A9AD8E9A624
311
07D7C9A5AE51D62A17A83A23728DE86BB56115804D3F2675F2C6B87541A0FC497BF0CA86420F558C9859EBE9FAD62747E323E3AADC03FDCDDFE7407B09DA90B44E3185723C5381EAEF589765E2F7A099BA46695BAD60CEF3491B8A171F5F56444F7CE9455312C3498C74173AEA0214EC029833B34B650CBB5A5508D5091665
311
309642791708ECF27CF11DB3D797D6CFE474453BD4BFADB768094B2147814D81C7CBAF8228DCAF5564B5891F5EF6A860EB2E323CB82AB868D8EA048880D63B0DE5341F1B3D53297B928A11E15F25E5148990F710747C3509ED14909C552EBE3973246FCE55D00564D8310BC3EBC5085D08D806799B77D6C57FDF5E55837F9E
311
934F09C03C729271B64F12D0A9F9E938107CAF7BF1EC8CF1BB9B42363D33070F4CACB425E605DDB0A34A12BB936DE286B9887A4E2E558F0886498BFF49C311D96C277CF6A9FC0D75AD0ECC5226D7E0E3572012E56D7FDE4410CEC7A6D0F997F225A2055B8B92E3956E875AE4993CB3D4C9063AF98FD45E1BAB165640A43439
311
A2C9181A7C355B297C0A0CCFFAE19B6FA3C2BA238A885FBC98B8F6DAF4B94B97304878DF4D8BFF6A4AEDF79E90ED4E68F00CD7299F4E0D83E35601AF0CBEF18C1E870E74758FA91F5131075004DB3CFCF09AE1DABC11957FD9808C92E8A678CE9DBE40DDA0E0D1D505AAFBCBA208232BFB6FB3704E8985E61ADE53DE74152F
311
5C7DE74B1DEDCD37DC3E8FB30D7EBA8B9EFFC3606BF90B8D438279CB7709FC7C00D327F41817EEA71CD9E49FE9C8C9A81C70915D9F0F15958EC5AA4C3BBFAF46986B90F188BDB24B89DE3C6F29EC3E6F66D84856EE96A35E657CA41B41EFD8DBFA16AD6E91439EA92B40B21C053249F51AE50EB0B24C770FFAF40DF12C8436
311
366819C48E36547D4E7B72FE2BBF10828583057814A668BDF183F6B2E58DFB151103E56303E63D00F39C27C4661605DB644D19175D02E3F0241E8FC3458D17AAAADB117CE9EEA690D0DB01E634878C04C2C9310B69FCAB831151E3AD293BEF6E46B0ABCECB50F5939B39C613D41E81FAE8D34CAE3C4566B761D37185FE864A
311
C32FCB71AEF39DAA5BAB88609BB980CD2F07A8F941653B529567726E2B2A58D079DD57E1E5E31426CF184A04D7B03B985F276D47406AF276FE32E3328BA866EB1FD39BEF57863A317634AA5FE467409B3873F5069EF0D71AF00AD189D17BA1974ECDB2D623E9E14086386A6AAB5807825C37B015BFE892AFD154920EC437EB
311
945D958E18622E1E0FE2FA06557CE4BB9BBD05A2D40E774DA2B65473791E314B7D6C886820B2FCFE4AA272B3B8B15E7344A145E8AF919B5454D89D36D413E87211186BF6F645E5EC94DCCE8E1C799022E4EC9BC86D7A0F2AFB1FC4B2CE48F84B3F49ECE65BAD24CADCC07EFF39AB06BE9E6B27A059938EA7208838455383DD
311
BCFCD967DDE4650EF92A14FF933C975DB20BD7FEEBC4487576485963D757D16340D9599FEB362F775F38CA4185A86F74B629C81B133644A3B18FD056E997E0734F9BE26D11C0AAFC669E2AC9FC41D281F8B2E1C35AE27BCE05F3DA295488096688719D974DF1B5D182DB7792288697F8763CFB43562C1CDEE11C4AABD5C22B
311
6E33F6F389CFC3477C5919DC0D533F8A7A1846B7ADB60ABDC26C43D0CFC8910B7C15EE22675BD02702ED39DB77A87A192CA7A543E6205B979B9F5A6B512A3CA799E198B2D5797C0AF8D1D872CA455D4D431A7879D4DD76110B5FF7F4176B54477A9EB5E4A5D11214FDA585F0382751D8E2582BA5D2075053298FEB8F153730
311
4E32CB22C2E2B693DC0A760B1DFCA751BDC445AFDCBB12820ED85F6D5298933C7EF1211E9E057684056CDA3FEF3BB6052355E162DF27C59E965A8DDB7F9437EB72CDDA3A090DE65A5B2F50326247B7EC67B73ACC7047FC9B353D6EE990F772207C6EC52B39DC2F3C0754821DAB559F7C1809C7D0DD5B0499D0442E0A6E391B
311
3D5DB46D11E731E6794EC77523FBDAA242ED67F9FA1FB684255671F63C9BCFE6E7E896D51001A6113EF2298BA494E0B0980D1FA5B9D60796554C02256B1E0345FB7C6186B6A19D2DCA270416262845FA4F42DB5D9B0A0B6F07FCA2E56C242522E001E0CEB734AF310FC8BFB57E38E03AACE93B3326A2197891E68452B26A63
311
07FDABFEE0223D3C03C3C73D2D5BC054C8311F12004CAE488E5C29287F8156A2CAA4AD0D7BE6B97264E4139F437CE73ADF52E5134C52B819777C18B323A5924E4F67AFD13B1CDC3A61793A79FAF5C0CEB718E441071E797C6DCCB9EFCF7E4A1E9F3DF3C2F9C9E8294E9586868788C972857FB0556D7A26941A7EEB9B580AD7
311
8EC40B85DC906B4120A563CA3B87797ED612D3B035962BB75F6515A393F4CB057F564CDF54F2E5A024514E6A1F901DB80C7E70B1FC05E356A7E72FABF4775B3E3FB8F70A2A8E7B6A94542BB304157978CCC999E707A29CC795E67A59CC546A5D47B368954CA7B6E75EC9E1F6FC73CE3B4F71F8CB1A6B15923D61EAAEB14626
311
AAA9D04A26EB9C66CD1BE86CA31A5D8703DE04CD1EBCE4F5CCB62F93909AD11E55799A781A956ED27D3E738F4538CB04ADABC7DAEF20BC35BA6A90BCC1DC61BA05F20D8832FFB9BC9B15E2DB838A0AFBB7E0C82A562127E0446894F427794C3037186F622BF24DE1B00AA10A23BFA47B2A180D6DA5AD6F7326FEB8C100C2D7
311
142EB2A0B2A9D1008A09BA343D70E054AB69E2A7EDB783CBD92537FAF4A44D1296AC2792729104B3276C276C951D0CF3CF3F1E6B017720A7B8505A5FF9589365979678C36F1BAF759EAF57C60F1FF5FE9DCF5F8E764FF25A2D06CF25117A8FED51884C13B2B750DB0E4F5E3D64124FCF11F0AD8F1CC3B3DA4B38ED22BF1CB2
311
585EE6BFEBBA63FBFD44F9537B9B37BDD6B358720F98A8125AED4349CCFEB0E135F19E208A04CA7E2B10711185D72E381F448036EF57C9F874E54A971CA37A639E986AC0226DC5AA00D5B14FEA9192234B3DE617814FC221C92F33F1D392F297731B567FD98FD91D989379AF567A65B8ADF177591DB90FBEA99BF4ED11B16E
311
50A0AB1DBF1156D034BBE04D69D08F939D8E92BF525A1DDAFF80ECBC95D8F45D3FDD289FD23F7D8B452F8EBB34EC082DEEE68E18EDDF072060FAD2AB1504DD4879BF67099FC58F6E9DEFBF645D16334A3E9A127C6F1AF6132CF287E433B43A0EE93812B4AA0B194E03EE3FF91EF9C6ED0074A2F6EB18A96A7C9890B1FCDA1F
311
2095E944DB911ED54C60DF16FB74C8CE9BDC7C54C4F14078CF73C2FFF1F1BBCCD7CF64F71407EA1683DBC410D226627F66E509060D5C0AFD611DE681D509DB8DD12FB1265B03C6F5C55FF4C30BD94187FF692B4F152982502F193098A789526A038AB529A52BC0DC4FB6285CBAC10A8B8DB75DCD9BDABBB221E27D1F8DA9F5
311
EE5926A1C8AA9BA9BC09239C6A7F12914EA3B59EFF7AAEC3FFCCE56F1C5C2980AD072793527565E774F4631DB178CEEC691B1F367BEA0CF2907E1D6B854D527065979DDEF002D8B2ACEA7CE21AE297737EDE1D45B31233B73FEA35BCFDD0B09721FDBAF6432681F2FD10C3E9EFB246FD6E854B344ACC9D8A0EEF876A7314B4
311
9B6A499FC650B099D650DBFEC7638ADFD245E2B7839DA5AC5F7D5623FC0ECEEC8653FC9B2BDD1AD4D00A566FBA7186DD3C9CD26512551637498CADB950FEC71ADB9A5524285DE328B8EC7EC75D2345AEC6A27C42AF6D9B92155315C80DBFCABBB7DA0FAE425C4FB896B15C9BFAC4FE67DF5A23D30C93DA4D8F36FB15D10005
311
0DA6062E22AEC5F4DAC4F6FEEF97AE05DE63C6D38F9E068A20BC5E3B6BCD75320C5090924E7F93640A7735B1A43451C2D91EE62C6238B797349E59890AF3A520DF4A87095F3ABEC2E61F0593416CE46CDCBE0E00E2523FCCD04408588B5B6C9DB6459C786CE378770B54F51DA3A5E1DF2A3349BEAAC234A6CF8993B598B3B2
311
5B4B113E353A4D750FA7534749430F3EBF2512E7EA3FD43C6AB9A1F765A58463B306721A15D224FAFE8C6F5E3432D57EE697DA0DD5A9D4866A8BCCAAA9DFF1F06047851408FEC060471D0E3EB86BFAF46E4B5E60311DC3E3CEA147C75CF971BE74689507154FF2D2E92F15CDB2B9182B11459FD8ACAC5A85F174BC94A7F4EE
311
4C4F5CAFA7C02E37BF0BC77B7DCD0C047BC316F562A01A441AFA7931CC84A28CB9F4AA367EB515778F29BFE61195FA671F4352E5E46E3A64773F1F76EE5EB36D7BCE9BCEAD837A4D77F8DB8C92AEEF6711920D7C7D0F76B0FD0EB7AB83724CD35BCA7D36DDDF5FBB7FF6F04A91F3E2BB3B8F1A43CD659639507FF6331C5F69
311
7BCC782AE57D757A27D97F1AB9E0AEDB43F92F1B2AACDF5FEC8ADBAF9F814E2027003BA2F9E144B1938A7A04050AE5D953B82C45619165C813A10E76DD6906B3C16438064D14CDA713AEC420034613E1AC7241904A49FBF87409AFB1FCB9B72FE7933A87D8FBEDACECE4EDCF6A4FE9FB94D5DEB74FAB7CFEAE17EE965DF980
311
DCCA2D04134994F9A2E94D2265DA4FE6AA7B7AC15FACAC2B5ABBCD7DFF542C5314FDAB2E1B9D8B65220B8E2B638BE008E8DCA22678C820C5053664D15E89F2D735B51A84955E81A443545E9FF787BE0FA700A76D136C27DA179A7C6E8939E01BE756E19CB292798063D8B97F44E8A27BCF3A614FEB8BE974A718E86F7EC99B
311
53CA35FA24F61F2B07266684623A3D4CF073E511F3A10A8FDAFAF0078C577F4DF9D339FE7862E5FA47CF4344209E5BF76D783B1B48E152AD281B15FCB934DCDA49CEC5706B1EE8B460F435324A5CAD154725E21AB8044B75A557A79F6C807B9340AA3D92503E866F4274412926C8C504E4D5EF8C0E68DD0B028781A6B4054F
311
11CF18941F101C57CCC796773ABC8DED9CD91FE5788806C05E548895354AEAC96546D55B0E94A59F148D061F42AA398D822CDECA4CDE79E13469BDCC44FDC990F366BA5978C15F97ED80CBFD73B0CD9B8B83A4F6845BDFBFAF034019473FB9A63BD55D3A4A7284757071574029A4D016DCCBE95DD679EF3C4880BF169422F8
311
C89B68A988D2B13793CAED4F74DE7486C72DC94DF46B8E93D8E02EFCB1FF9B3BA10C8AE7F653DF94F4AF466CDDCEF5776687F7C4C14B63E4EED1719DC2EC482D7DBCC7AE518CDE3D5FF86D39000EC3673C0044E1D308BF05F74D1B5F033A7D1BE7F74BC55BBE3E4A20F920946CA0271EB17BD2B80E5660ACB8A29A79F5E4BB
311
A49D4D945B6EEF4A7EFEAA65E5555BBB57A7E15D2F83C69F30BBB978D2B39F1F26FC097424D39BB33CA3D87ABF64E307938B685BAD44F71556A30B7E712CA4FE600613C3E554B69ADE949A7CFE214DF1FFF05CB82151EC6FC31950239F94CF7AD39DC473F6EA356E5EC2C4EFA04383CEFE985A127484366FBEE3C0EC4FEA36
311
3E4F6632AE781392FD45D67B63FB8DF70E82734F431FD3443172A0E30A83D60982D55FA6A2CF86DBA8382502ACC6CDEF3B907982EED1160E14863FA242F9757347E1544275CCDCF71ECD5F8621CBEA326B8BA884AD7F825781923E66971F04010D574C541D8427A438A37EEF8AF88240EED7362C953F5A81DE2D56109CDE25
311
24EA0F5D2F87308C0C47BD97AD605878AB8589E17CA83930CB5E0DCCD75853D68B1AB136594926DE426C367428E9334AFAFF90ECE221BB5DC9E5BB53D2CDEF954EAA9CD814F0E5725F1965DD458E5F8487683AD86B9D0076BE3EE91EB1CECC5331A67A3F79D8B27587C12EC2A6A70474749F27B4C0BBAFB94B34189E88DC18
311
964BE4121B9137FD516C7755356E50D6714E31ACD222621EBBCD1CFF81D87479056A9DA0E0B8EA19D24CF937DA89F78E8650CCBDC110AAB6C4E46DCBFD0446BA9E2060E81F314AC2031E88135E5476AC0160EF5C0DD2EEF1B8B5CB2D198BE9A554A9093B5F7D7E4B5407DDFCA1D9C152FD97F55BFFFDFE802954DFEC8995B9
311
83E28AC92F1971E28F531DC407A1280EB125F64A72E617EFB27DFBCEDCDA2D6F2BDADA36873EE46B9BE1782998C63DA7182BC383FB6FD15DA472B175D7E8B4FC88F38D6E07FEAA3FA3CBB8F6B449ECF14D2175E5C5CCA3A42ABF24CA6C9395AF74535F4DDB38CB84F56614B0FD32D7E19CA5CF988DB4449C40E23DF2B16772
311
594554579094450F56F253CD25EA7F77366FB1CFE79696C428BB64D5A41E986189427E5E4D7E2DAE3D5BB4972B3DC44EAABDDDD63A2264ECFA5C786EB0EE1FDC5BE34FA0F08376869FD1E61EA06CAE15191135445EE8F0394161C3266A596AA035572BB0C8876180D8B9C77D307DF9DCDF7365ABDA6F3A2366436457A4DFC1
311
F259666569A9E4A79C817BDD5610E5200FCE894A358EC72858D50EF67545DA81C6FACE3D457BAF70367E1E6BDD9A952FB4F56247F58F523B97E640246051A72F79BE42FFA0B3187F63097F91C48B868586F714B0EBD5A00A8412C1236E1298F60C72BE6C96B82B404CADAA304AE9F303176B14BA53FBC2D5E86377E3554201
311
9E24D97B96A49B2C0E5006E7795954DEAF5DA58958839043C6C70BD3B1B33B6DC5C31316D8A6923F142E26F6711A2258AF977DDF1F970ECC4F1F2B434B96D81BEB6E89BF3BBB3C7C8CC80505070723D6D7D7D3C8CA27CA164A26024FED94B12A86031867241DA53D929636DA600F050BC40CE48B8BA03D69224720DEE2ED21
311
27390BDF5E6EA64527BBD4C4C63FA76BB801FEEC0E61218EC98A8A86CD8313781617877E66692839B9468CF4DB8E50A73986E558E309C0D6F676F921BE02F1185454DC75B111572FF9D27D85EA14C05AD7271225B391C4275659CA4A43759D0BA44639BE4C30A84DB7F67A41399FB95CBF923B1B1672ABC807C1590557FB18
311
D811983FA97F5E609516D62281D38B1281F68FC75528C35E4CD7DF0F7DBB5E5DD69C414EBEA2F4A5B241B996BA77AE6C772E367408C633EA3E438B68563EA8BE7667F3A4C4FDEEA52ABD78A2820F443B7914A15F180018D231E64519C56A12F6CA7C8DAE18F06F6B769DBF92329EF6A5D18FBCE600F36BD8E8198DE5CDAA96
311
181F3A756EBA5501CEE58F497EA4F418A2B82565B9BCC611713C0B708CCA1F398B78C5F7D03B3437CC18F13061F55C7BEDADD5ACB1DB0E36D3CE47FF6EA1A563A57E9649EA5D14D1A50EAA457463381C073777EF1600607BAF6428A7DDC079D47A204EF1E1F1F0589FB054D45E02CE623B3823C317C601E589E22B1E88B448
311
524B86A82828E32345EC18AE17214B42F8C41C6D428016D9BA31DDCB47572561E5A402E5BA4FCE55F78AF7268524AA04130F3A20BA5D1E9F9948EA48FC8F5314FDB35E21898198060034ACE5E3E2BBCA34092518F275190AF65F45867FF0900AA4B81F25427414C372BF51DC29AA855C5428EE1EEDD6B849AD60F6E73475C2
311
D2523F8A2772C840A478DED18A8C5C91B085F255DC4F54EA7AA8947354FD17ECF8FB3B4A0DE7B483CAF3A1165EE05BBA413E5C1FEF3DE1D6B8F2F3F3251C17D9FCAB48A9AAF63AC773A0E413BBC46A9ADF84A566FC920E4D8C52C9769EE3301CADEEEDD92B312E02E2A7E35B7F1E7D203FE5A7D75578B06E99D0E46FFADB8F
311
DA17ED8880390DA29094202D6F645F76F6F96409CDA05495A96E84B04A00D1A6C6C81D7F3DE9376E828CCF144EE50E364ACCE7237EA0BFB5607ED1AC3CFE73794E5B61739D14DF1743441B1AC98F00ECEDE9E7301FA29755FBEFA68C91EF2B314CF510537EF1ABFC9A762496280B546F5EDAAF8A5B387D469FC9A878A92828
311
C88608453ACEC6094DCA54111E7AD5B2663DFE2DD151B7F123B9F4FEF8EE36AB125FD7AD52A59B1B765B3E3F73E3F73DEA93875004D2AFFE3CDE9493B87A9904DD052028949041A91DC0E1BA47BA714343FD5B25E0A6A09503AFC17C790058A836A324FE31D7893512E28230332F153181C1E018E1124EBE1BA262AA428A51
311
8237D1EA7275E48C5C561BD19ED6912EDD8367DA0F31E40EEAE9683DA9257525AEA7B632B97119E17145A90231768A4F3B9120FF32E8319B015E3CBE26F1A754177D8185345817C096B0CE443A955D13AC15E1FB5DEEA0239EC32A3C92241A237B0B02FFCB4F93CF2B02570C8D192E2F2A68CEEB42F12E6F8CEEFF46C251E2
311
2B4341C56FB08CCE550E7A9D6F4D6564B9EA52A83D5BF2C6E03FA19D2775E15A8A7ACF30A13C259EE7F5EF2AC3BA354F1500E1A07FC63FB4686E2F12EC69719F9ECF5FE3F35598DF2CE944008CE78F0911BA5BE5D0A34E0098FF038669C26030BA9B300303039852A8F6F496341737CA7E0D2E3AAA36DE0A70AA7D9CA0D54D
311
9AD84B18A44C9E625475E1C97B93BEBB38DCE7D227E67A2D00F531436136355F243D1FC0D712C5765754FA22FCFFAE97919161F46D6E61ACB37D83777B385889770B50765B127768443A5C4D3A4E35A3151111F146B7CA116F918A049F1C272F2CD7976C69A0068773451659A97E0F4A08FE604C3FF6CE7385DB19F4D3ABC8
311
A0D80DA8A42096AC377DB49382B36E270B6FA7570188B4B7D1DDDDA82ACA487CCA5D38BD3BD039ADBAFA4ACFF27809239B722081E2EB9F145320553D183F28471C388BC8814E5045676767AB58A8E72D1CED2CA731379515D2E533E4CF0B39DFC625F97AC4836831A4DE330E87A8126FA17EBE583D614E71E22A8DBF282559
311
9743E0640037303E8E1B1E8EA4E1ABFA4F62907B5E4E0E5DCFDAB417C36C6848A2B8D15F1E505434C0707E16B1CFC2A1C36A42BBF55734F8F4301DDC2A5110CEE8C0747F69519265012A2174BF4E955ECD4FDE095A3ABC70536B7AD0B9D7892F81287D667C108703C9B66A221E9A0929D030008F77FF6F5D2108EF5706FC87
311
A3069B976F7C9FC3239D13D283CDEA83597461079FEEE049B0F392889898B7D87D31F8D60ED7B56B91823A8E4EDDB36C6172ECEE42BD42B12CD67994FA0F0DFAE9389356F4CD4425A4B8AA55CBF7ECD585C6A2C2316791E43D5C06841ADBB226A87FD61515FFBB0167B74E56BD7F3E90A57A97FEDCBDF483A0D6699A8C0849
311
CAEB4947FAA90D8E332D9DEBD9F4738C37DA0CAF9CF3DAA68BCB67C420459C7A64498D6E848E5CADE92BB6901F607AA331104A67F7CD650EE169B1DAE94D2C31C2F993632259B6957E246EFE4C5481107B07118607700040E5812A2A2A38DA0076875258C753F60E0F2662C748EDD5F3F3686B8FC3BD6FE631ECCAA1E8B1C1
311
E565AD117E54893E79F4672E32F9E46B2A183DFDCF3EECB4D4D077DBEA0DA254D256045109670050129E9B9B1A9E4A11344D61497A992778095151510C4BB7EF2009B63AA4360635312E4CF668B7E0D3D85A8688E2BD83B569439892ADB63461930D428E0DE42E4AC57CE48DA5CC1449530D8BD3D6A0F08DF20C8E8F570F2C
311
FFFCEA286E30969B4654D498A58D9DA782E19FE3F002181838925592C4A1EF0B332D88B61A92C644547BED490D3A42CFFAB70E36D961F694F6307F72FF15A1C79D5B1B5CEFD353D9E2B52566DEC8F8F09CB3E8359C0F68EBBB7898243E34E12A015B2685AB303C04D3A9E00671FF3DFF0A184E4A2ABEB2B666AF5B3A209C73
311
D8EF29DCDB069C9F391EEE9DD0F74C7BCDE16F8F02E3B8816122BBEB50665775B600549D8BB33A54A6BF940C028118BC6878C79958D6784F9DEAA6E26748386FFAF8D0D0101E2847B6563F5D8DC1D78F787BE00E2C941AE12148D4A81599FE8F68D4DA5CDED75530ADE138240300EE13B0FC13A1687FED6774662C05A2B7DF
311
B186732F0D7A93545D8B0A6390AE5054D9CB582DA846D7A061B3358B45E2B52DDE63E114397EDB7E09233A579155D795BE76102CF277F4DF8B188C4F2879BEAE3C08347124BF9ED23B128259FE107D31E34A652F090B30B39E0D9AF917B76A2806135621A8A60681F16AF216514BBD02711585B5B1AE823F4B2D0369EA5B6B
311
CB863072727FFC871CA6C9AB79A814D989057E9470A3D238BC87CBB4A0EA49AFE2B86F22E499793CAA9047080450166BDC357524561E258C77CB697F1ABB32562CF87C3B7AA12F911EF19FB3E5C02222E887D08202A60A17151F5E053A86B437771088B4FEE14D652C43E8D939995D34545E12E2FF93D4E366EAD25F10CB7D
311
ED141563C3D0C447AF06078A91135FD4B9611583CB4BF3BD167F2399CEAB0E0100F8FFC305F00F1711717173138B4B48C83022295DE657EFEDD97F238ECA80F528AFB4F8D67AD4E2594B9A3AA86D7487EFC313BA95745C186F0CDD84CC12DC9CB0424B42203D351FD9C0A3AF10CC7F388E0329279087386421F194F4A29464
311
C1DEF7EF8BE515E4A199DCD5B909342598D8FE6A231F71336248D5CEC5454455C7BE383B3BC7B260FED27F703FDC39A170F3827239102F59D4DEE7FEF82EAA1A5E4BA94DCC4CC44E7E2EDE20F24244E4454369D2E87C3F823F193FD4FD27E1C23984B01898D15ABC20711A8A558054951A6AE280096BA36CBA439603B7B0B4
311
C45F248C14B2383B4B5CD8ECECE4FF859AD4A6CA2326D020EF090F4041D28DB66E5256B56232CC52829DE8060BAE6BBF37D4B7469B822454FE93210A3E8D15E69FFCF01123222611C51C4FD0A041A0CFA2471CF6BE38D2B20FA4C3525B5B8B586759475CF80ADFE67A284AC24651E52B8E683D24C2622642F27E7C3C22783B
311
CF63648BC398BD6CD0D9C97E7E7E3EACB6126DB7A6C1FD9F1031302EE67ED96F22B77C7CA0239BB324207559B105E4693EB26EC46182A92C9C0DBD24F29B31C5C5AC1F84300E0E17CEEAC15F5736FA4A98971E2F1423BFCD68D4BBD5F86E74B40A369F39507C88FCDB35D2DD8DEBEA4AF999E23CF2816D204200DF6E611781
311
B9884C1AC8888B4DE397320472959434323A5A36B22A8E1F721A270DF3BD65E4A31C11FF048AFB0D8B7B6881423793963A23CFCE935FC189ED36FAE35C46DA3574C979E4394BE52084F3081837BE033396D2EBD80F1F691B273F660D2B32FA27A33B1DE4ADA5F0FA4651511102DFA410DDA86E065272CA314D5249DF91B06B
311
B92807B28EFD54F08F7B525252782CD276DD02E6B0319B13DF87B1F6361AD6B28FC0D711CF445429B9E5A433CD493051C49A9E03DDB1B147D880253514A5DED88009018620EE229101C041950E2D8AA8E1F5F5438E0C0C0C60EEDEE9E3E0C051948C69F84BB7B2A48A1F3C8EB9E6864687F4F4F6F6E2FA87608ADAF9C5E117
311
B7C1A737E710769DA1D15ECE6A84502AA855398712D5FB51BE92E4EF824969CE18278798AC303C2C7980DD2500ADF8FB1E6D6C2FAAFF9987178923334A244758BAA01A9A1B70FA5097D01E1CC2A58DAD0EC94CE6430AA9B0C10D75E3C6BAC670EFBADEE1607739CE0FC18A2587E3EC3058562014C64219C69BC269082D5C2F
311
4A659278D585755912176D78A1B641719C2A394CED495A1AC5D583FD2F5EDD93308EA7EAE8A6DD396598BDBD3D4CFED62D18A5BDFDE0DD5C80D1A89BA62697B131AE7CE9A6594138582F1B37D68F1749AC7CB67A70695D48A4A056AC1FBD4E82358CEAE38F54B95A9016F9000F9879C0D9D131768635CA798895F27D6F1614
311
F11F2838A83611AA51C9A3DDB539D42979C29F10465655C17BEC3E2760B80DCBF609198C7B171A531905F3EC218D696025975E986C6B4C666666787271F202805577DD5A3EF0CAFAF91B62DC4B2DB4217A7606282F31D8DDBC290593BAA93EA6353AFA9939B877978481E15CFC9F2755CDC00C538F63A4BA3E80AE009B73CA
311
0185687D339A507D165B74290D6EE46D5C58148F020C3668ABE9EF2F7549170DC80DB41FFC1D678FF19AEB10C7133832B104B80F691B3138F97A92D26E551F1F110400D45AC71A9B9AC41A1A1B1DAEED0B0810638EFFB511D46B121C6FEA0F38CD00E03CFFEB9713FE1F9C263E4DDEC160D0497FA9A132BA608584057FB153
311
80825DE6C7FC3C667EE947D488A09898D8E939C4953BF4EC9836344D2CC6B2971B2A21A572B06096F4982D2CC7232D46E8EA69DC83722E267754D777F97F96D5DA74E1E75178084D0E70F12AD33E5F71EF2AFA599B2BEBF60A5BE475F444F240CBFE8143C334E7ED9150FEEFEF7EB020C4DBED388DD1D6A167A76F3CBF119B
311
578AE8CFA7736ACAFA4440A1C47185638A0D2F3EB5BDDEFDA958FB13CE4AA4923D5BF840392D45544329525749734866684BF7F8D9D54D892E19BCA9F829A0F8BFCBEEA6CFDFC61D74EA1A645ED7A1FF241739F15694BD835B66FEC5677E40FE69BD3F91AE402F036537218A401CB0828604AD189E575015C6F3F6BBC8AC79
311
CF6C70653847254B31551EFCBEB5978B9DB85D58D0FA41A9DFE9C624834AA04949D24B5AE6D299E072D152D12097920F14AA92C31C3B97E28B6C2E6E9C23D63043ECBBC0A60FDF5BD0C33C127EA8A3308B8B6AFFEB28B4455BF6E7AF4FC6222728357EB8E46E85053E6A8843AB23295BF838ABDA94658FEF3F832F147046B4
311
ACD6F7D48E8FCC9618582961C898D1C7A253C91BFECBDA6BA18A1FCF70755DCCEE2222F41B76D23CA98D0CB3D95F0CF66D57FFF65E2A90F5DF40FC3187621E981BD0BC1D992787212688976B94A8F0C6EF646624B570B78E068826F87CE27041A95C9A4871FF65CC17FCB1639629AD6A9517000D63AC231F3D741CB8430777
311
E7ECF80CE7A3F73C0F162F7E56AA71F4DA80A33CD6ACEE78E2C11FAC03DAFCE929B106F8F6B3ED2DC71FF994BD9CEF4E9A94896EF1B6E2B7B4978168BCF0847A3D2A4F1B0500B926E634B174548E9FBAD27153FB5FC36799B1E6C7C38A94E1F9E996796D7B485E635D5287A2AE76FBD11A341DB3F8F810385BB7296391973D
311
C6C37C452A9305AEBBE0CDB6C566DB59FE60C8E94B1FD090354BF51439FFD1B48D725228FFA88C84F686F547107A7A235665A4593B7C34D748C1AC8D56DD5DA861EEFBADDECBBD65117E65851F90351AEB65F0EFCFF4BCFEF24CB7A5879699FAC437A7AF9099186CF006BB923A59E37D7A36A29FD8D2CBB914A5E9D0A8FD21
311
2FBF796AE9A67958FF1D5D8B85F78F96219D4714EB919929241B6C018AAE0C02069F8D919961EC5DDFBFB7573E3AC8E08BFB7C8534BE6DE045B3CD63DBD71F7638BA2309CAE398EA3A7D8F98BBBC7AEB367EFA5CFA27A9F8F2F52FE878058E6209C026453F8E7E8A237DFC389E9590F6059B397CFD65183BBF936E86896612
311
A5B5FEE49DAC8455D026218AFEBEC12B3523A45B57B82C9C97E02ACFA1184DB18E48CF615DBF39C3CC6F0B4AE6BBEEA2E39D944E290302FA3DE33FA7E40296E2EF7BF1CD855BBECFAD0FD622BEE9746FC4FDFDE545AE6E3BC234CADF83A0FB76DFB145BF3828AE3436368AC24989454F8FF70A177672C711CAA1A76107218C
311
F948CA01F873520E7A2B118EBB161ABAD432932029628B6761590C98AB590C8C8C79798CE9F715BA696E839E9131A4BB68BE923F1747FBFF165331FFDD4D05997ACD168F12CA75348DAC04C7F509FE83898A8B421181AF492861CE81E4A2DD0A30850CFA95E05F097FF70F9E777310D584A75BA7018922E271DAB1D7856711
311
57685B7D383D3E074DDB4F1E44EF04B07BAAC75A062077C54B9752C738C9D804D402E02851F3F89605AF189738C18C021D2139EAF72513824E10DDD3047BACC8521ED7E98B257D1166903B1B08FA6F918FD7E162913FEC7D0EF4787E29C35FBA8C6E2C9C20E9AB30AE42CA2A01A090E7D010C1B5BF9CEE2A304BF3A987FB40
311
D836979B79E18D70F257DA61E808472DD85B82761825779D6B90CAEB0F23360C6F80A7D7D77545E95B3DFF0CF96A827F9B5BCECD2C9698718417EF80FEEDEE938AFF55859D0D540B7FE09435583A6F04874A0C7E8CF234DF4879722000167F5872CEC6BF3EF7E5A8CC8121E6A359227C8A29C95212F9F735BC72A887D56B8F
311
309FC525BFB4FD767AAEC4AEFF249CFBBD2DE1AB9969A6155C7D8DABC307E47324C1F916C7BCFF40ABA5644E9FFB9238D19ADADA49D9610F01ABBA57E4DFCBDCCBB2B93C8953206C91DE01B0E2651A6D6C31721915B31F7B7CBCE55466F6D70402788FA91D73BE4ADCBA99A35F17D6B83383704917D6833F0FA3CD45C926AD
311
B8BC17999A4A0AFBCE2541F7B8CF4C2F5FBA611B3E626D64407CB32C122DFF4EF8674D6EDBB86C8F7C6A16D50FA685E2CCA34F8F7D1D8265BB0042E9D7F1F666F7BE5FAA5184DF58E12122A42EF02F461B3F369AC746F96528AD208512AB56844CF75B97F352DF7995024FB02855385854F3798670D01CAC771AC3E1889EC2
311
5F61A20C1F8CAB46898817F9C47E2CDA1F286BF2F358298709FE567C91133E2638C8B53975E753EA8BFD3578B5F7186B7BF084EBA3F77BAC3132A5779902EC22AF2D2E79F42D324E083386DAEE9810D1B44A5DAA54513C7A71E52A4AB9257D975B621308FE4D2141CC3DCFE946C154A3C1DFCCA7629EC69ACFA831634ADDA9
311
3C0388D2A9A2DDAFCF957C6995BCE7FBB6DC4EBAE79E63EB08E9A25F52F67076F7093CA545CA3053B5BF576DEAD4E0017143C5F759F32B2D6F145B52B67B48909B7C7FCA6586EE385A2189C16932CB6DDFD9152AE317C430492A578ED27B72D85D40C7C93C097939E1B50F4D67F05334FE9DC362C30B7FF561B95259138ECF
311
D9274C8D695C31B14D4EAA9F3D7FA8DDF652F8C5DEFA23284C799B7D94416DEE81E05A866302DC70192A5368EA65E1CED8BF107A1E2D3119A71E85DC1A7B0C1E93274CE04DD0F2ABC8AC7C987FDB002B6F81757B43502EF7A0D92E416494FAEEA4C9C090CD9557AA4D532F4996A272B94355C5A0E4974EEA9627476F30809B
311
94D8D8D860062E02204643BEC7D0438AF800FC7E2B26955D595421E83C69E1A07E0E3122285835F014AD538188CF9737CE76D464A353FA55A001AB2526B84E985083693BC76FE211CA1D000679C889E3C009832C87E1AC2EDD05C302557422DF0800E316FCAC86978A371F025A6C7DAA9F333E7BD160403A1A06EA75AA9888
311
FF01504B0304140006080800C970704C28BB58AF800100009E0500003D00000041433446313030302D384230442D413338322D383939392D4536393346414644324444422F536368656D61732F436F6D6D6F6E536368656D612E786D6CBD544D4FC23018BEFB2B96DE15493C78601010A34B880709DEDFB52FD0D8B54BD70D
311
F6EFED3AC0B12E6442E2716BFB3CEFF3D18E26FB440405EA8C2B1992E1C323095052C5B8DC842437EBFB673219DF8DA659866649B798C078B48AE6410122242F2A4994AC7F93815DF85C049C8564CA0A901499DD886B2EB9B1E02448F358701A9235880C49A0119892A20C89D1B9FD768815CAD268CB5E0355B40B1E47F3E3
311
7A2020464BED06AA57CE8FCC20C3C3446D46761A2632A8C1283D07031EFF2AE7CCB1BFEEE916E406DFAC8E36FFD99A9D60A6944090EEDC3B670C7DC13DE86B6B2C5C240D6E503BB85ACD579D513F1B9F9A69DC9CC22AFA80C426D40AF0B21EA168559156B6276F0F726A6BFF04DCD513A87A62CAD41FB24FCB2858B3952E3D
311
852084DA25B9303C15687973CC8E8AAE11DF2836C38C6A9E765E8C1BA1BFB1DC29CDFE518C8B5A7655A4ED7E77291ABEB80DBD82EC866ADE1B8D05AF9E35CF09D7A061F38A986D9EC412B8F0F65E5D81534D9B231D1E5A8FE577A241F3A5FD01504B0304140006080800C970704CE336299B9F040000341300003E00000041
311
433446313030302D384230442D413338322D383939392D4536393346414644324444422F536368656D61732F47656E65726963536368656D612E786D6CD5585B6FE238147EDF5F61E5BD1498E9A895A02398AA5D1E2A5665BAAF96710C78D6B9C87168D95FBFE7F81242134A968E469A4855437C72AEDFB965F4F53551642B
311
7421B3741C0D7AFD88889467B14CD7E3A834AB8BEBE8EBED1FA3495108B3E01B91B0DBD1F3EC8E6C991A470F22155A72F73CBABC1D4D5921DCD1934863A11F990102A6F61466977B8AC49FB13C174CB3940BE4504A22E3713489B7F82406516225536940BD88E4E552493E8E564C1522225AB0384BD56E1C195DC26FAB1388
311
2C2EBD62E1FF9E5B0FCC453132C99548446A1872B62267078F1EF14C3DB1DD1952DDBBB384AD456779F387C51992E0ADCE12FED2622BC5CB1952FC9BDF3295E9206E961AB116DA7ACE45F76F07A26EFC3FD762FD7362FC3C0BAA4DB34C09E682CA5167BADCD16CF94370E331E2F1A3D852008AAD5D64BA2373478338AEB158
311
3B905396D158182655E1B938D07926CF007CC7E85E6709999B0D3827C0BF406BEF55C68CF5579DA32C8C85BE03EFE788787E8FEC95DC85C3E31A615658D81F9A34499612004CE69CAB12531B15A887ACA642C110F8C1A8C1974A85853F407794695C905C688E69B116550ACA946B9B4785FC179E0E229240B62665328E86D5
311
BD2C800CF5D80289F35AC25E3DD51508F4BF9A74A0F5A557BB3D284BC6FF59312E282F956A75C5D453906F48D11A876599E49425602400842995BDF02C4D012E226658F78A710416AC552831FDDEF0E6F0BABEBEA9DC36718CCEF4DAC5A0DF871AECBDD8F448F015F8DA113A473609D1751672B723874B2CAB21ECD6E284E5
311
1DCC7D1A47A00F60EC21DC4CC3CDC406DC03760A4E6C772F2F4D561A9AE58C4B03F5B4838701472139EDCB36819A66C472B52AB1139C648956F43E0DAEC067B56B0818F5961D3D446B8F1E1E78C0EAD7EE02AF2895D813E88AC5014A7B436DBB20F778D40A1D9737EFE45B47D49CC8360F9966B15AABAC802C1005548A93EE
311
469F5D55317CD8BF0AA86CABADB2A009D4D6F60CFE53AE370AFE8C45415B15D362A5A038E766E34B00F8C2E3E7098E2093B1C96349FDAEA158903B4BDAEA665F473FECE72186E3BDDCACCADA31839CD6D4FA7D47DF5469006ED340EBE71DF960DDEE88A3E17557039B58C278A1795BA8079419DA8FC5BA1BAA1A66238BF69C
311
7B2BE4E6274839122B7D00BE8B7D52CF61B2D63216046008C8B330FC10F8907787DEF061F47965BBA02FD8F53BA12F9827614979F53563D0BB1AD67A03DC0E00E2FB2CF3EFB457E70E65A3D7C78E7D700DBB45132AE9BBA5E468CD861408961AD8B00A55C2FCC677F4456039FD9F1907A5B3E2D0EE845FDBA2DAFA88C64195
311
671AD6D282DA2E45B1F50A0D632B0D0B6718757DCC7C84A70A3656F222CDA6DBF07E204AB358961D1BE31E53A82C2C0D56DBF61A5608B5A252A932A1DC6E32462430853353EA30417C8199A662E946A4EF352268B8CDB9A9C6762515ACE8E09BBC031C608A02C4BA89C9DDC074E46E0E26A17BCBD4ED43270D03E3645ADB81
311
F6D62CC07A3243EB81C07E01681DDF2DB4730631E6DDA6CBBD048BE9F06AEB3CF06B31DD6C9575E37E9FF17161342C4C76D95519672A6509E0F5C4E71B4B1916440059F57D0921F496237E473A83E3E4E06353BD9D27593594D7B6707C08D22FEBDFBFFE03504B0304140006080800C970704C8DFFFC99640100009B030000
311
4500000041433446313030302D384230442D413338322D383939392D4536393346414644324444422F536368656D61732F52656E6465724D6174657269616C536368656D612E786D6CA5535D6BC230147DDFAF08799F5FDB600FADA20EA430D968A7AF12D36B1B481349529DFF7EF9A85A718860DFDA73EFB987734EA3D16F
311
C5D10E946652C4B8DFE9610482CA9C8922C6B5D93CBFE3D1F0291A6B0D26A3255464182D920FB4233CC629881CD49C18508CF000E3EE309A100D61622AAB4A8A33B2483F11CB639C545B0E1508438C3D3C0361192846DB7ACD198DF186700D182920B914FC1063A36AFBEE8FBA03FFD3CC1D1F4FC9E151A2AF59F628C5B782
311
1D83FDFD3489305080F2EE04BF962195FB285E9D2DD352320A9E827AE357594914E42B1F5FE35F83688F60C4C91A6C946ED0668E8F244BC2EB0BA6E3BCCFC0B6A4B507F9F9F8D51EB315D9BA9E08D308E89F96931666E577837E2B4172199C68C4FE306156D47DF51C698C7B9D97FE5BEFE2190C3C38BB054E6E8163FB039C
311
B4B993C80BF18D969203116D6BBD26238B821F9BB909AD6D9C71B85BCD8C33D66FEA3D31B4BC0AD45BEA46BBEDDFEC0F504B0304140006080800C970704C5564BFE94D000000570000004700000041433446313030302D384230442D413338322D383939392D4536393346414644324444422F4173736574446174612F4173
311
7365745461626C654F66436F6E74656E74732E62696E536160607074367133343030D075737371D175347276D135327072D575337536740303233721A0BADCC492D4A2CCC49CC48282D4C4A2C4BCE454A02018F00249F7D43CA06C727072466A6E2200504B0304140006080800C970704CF865834058000000680000004500
311
000041433446313030302D384230442D413338322D383939392D4536393346414644324444422F4173736574446174612F53747265616D56657273696F6E5461626C652E696E66558CBD0A80300C06F73E4B117FB66E451741D041DC5BF98480A492E4FDD18EAEC7DD4555D89EF28DF51A0B1BD8340C4DE7DD848B988C0ACF
311
0649566493F2408C508DDEBB99D5129FF8F1AF8CF5B9503E20FAE5A16B5AF702504B0304140006080800C970704C1C2935BD38010000A20400003600000041433446313030302D384230442D413338322D383939392D4536393346414644324444422F4173736574446174612F636E782E786D6CCD94314FC3301085FF4A64
311
8931765250552AC71582A51348540C6C57E7D25A75ECC8BE20F8F7D86D0650115387AEA7EFEE9E9FFC4EAE3E7B5B7C6088C6BB86D5BC62053AED5BE3760D1BA92B17AC582919BCA71F182B1CF4D8B05C664AEE821F87A9D46207A3CD556BDC612A3EC488B481ADC5E7EED13B42479115DA428C0D8B7A8F3D7018C9B7180FBC
311
05025EF380D18F41639A44A6C769920E08842D53B3AA5E94D56D59CF37F5DDB29A2FEBFB772932A9E4D67B3BF1262D0B7EB89955FAB497A94A8A0C2839063351F9354CFDA5926F8D9322914A460AC995A983BE86D401C3608D064AE609AF09A94C10422FC509565264177E79F1849D7126B7AC9334201F5E92400C64F00A3D
311
F94FEDE5BD59BB48E0345EB323E71A2FEFC3EBF117BD9D6279CCCDF5A5E55C2337AEBB4056C4F19CA4E8E4EBA2BE01504B0304140006080800C970704C79C592EFE7000000600100006700000041433446313030302D384230442D413338322D383939392D4536393346414644324444422F5265736F75726365732F414334
311
46313030302D464644442D413243442D323042452D4635433146464646464632462F7468756D626E61696C2F302F636E782E786D6C4D90C16E03210C447F6585D4E32E9056511AB1E42772EAA5A2ACB345018CC054EDDF175A0E398D357EB23CA32EDFC14F5F908BC3B832B9083641B4B8B9B8AFACD26D3EB1E9A25546A407
311
8C4DD1045859B799567BC69A86B5C1CD54DF5DEFE27D983B44C8CEBEA7B8B3C97A53CACA8AFD84601653093728F765336416B9642858B38576805C8071C06630041BD307214FB3789EE5F12A5FCEE27896AF6F8A7752AB0F443F78170932A6A783B0D8C6D8FE118A7740AB9ADDA07A08A61F9E53BC2DB52A945BFE01D14F6A
311
9049C93B6BA8D5C4D112D0DC203041F17F582BDEF336F92BA369EF46FF02504B0304140006080800C970704CA233C2345D000000800000006500000041433446313030302D384230442D413338322D383939392D4536393346414644324444422F5265736F75726365732F41433446313030302D464644442D413243442D32
311
3042452D4635433146464646464632462F7468756D626E61696C2F636E782E786D6C4D8B490E80201004BF42E6EE76F3C0F216234B883063108CCF170C074F95AE5473F5C4C06E932E4F28601967600677D21E9D8092EDB002539227A2FCCB80E1168D80A6417297A89C5D6963B7129A0D1E8F2EE73AA7B62BBEB8B27DE50B
311
504B0304140006080800C970704CBE89762363000000880000005B00000041433446313030302D384230442D413338322D383939392D4536393346414644324444422F5265736F75726365732F41433446313030302D464644442D413243442D323042452D4635433146464646464632462F636E782E786D6C4DCC3B0E8020
311
1004D0AB90EDFD75167CCE820A4A845D83603CBE602CAC26799919AEEEE0D965E2E908050C6D0FCCE04C8BC355404EB6198129C92351FAD580A10E464065907C8D948F8F166375F655BDC3FDC3B4E530A176BE7057BDC43B2A593FE403504B0304140006080800C970704CA2C274267C000000A30000003600000041433446
311
313030302D384230442D413338322D383939392D4536393346414644324444422F5265736F75726365732F636E782E786D6C4D8C410EC2201444AF42FE1E05A2890BA0A9E0BF47636943A4D060311E5F68BA70362F799919D97D97403E2EBF7D8A0AF8890171F199461F6705659BE80D48A7654E69FBAB0189C3E214340D5A
311
CE3995F550A39B86129A0D3EBE0ED99B0B72C61845B496F6C2582AD8FD41F16A38EE115817E736A9D8FF2ADBBDFE01504B0304140006080800C970704C61172C740C010000550300003400000041433446313030302D384230442D413338322D383939392D4536393346414644324444422F536368656D61732F636E782E78
311
6D6CCD93314FC3301085FF4A6489318E5D50552AC71D1898588089CDD8D7D6AAE38BCE0E827F8F1D32B4121B0CDDECA74FA7F79E7D6AF73984E60328798C3D935CB006A245E7E3A16753DEB71BD6ECB422C47C86B1269A017A5665A6D581701A17C9C1DE4CA1AAC1C7D3223EE030607CB147180C6B6C3029F52CCD576EA68C
311
0ED2893B930D979C20E14416CA84EC075826580293C131BD1272D38ADB56AE5FE5DD56ACB7F2FE4D7595D4EA1D312CBC8F1908C79B95B0588EB11812AAAB805613F985AA29983E77C74B1FAA2B84562953696121F3D75848338EC15B934B59DD0CFE305A7535EC45E4478840DE5E6BE60B7BFF16FA19A2037A2A2F45DE846B
311
CDFE9BCBBF55D0CD1B50BE415D08FD0D504B0304140006080800C970704CE3603EBE7A000000C20000002C00000041433446313030302D384230442D413338322D383939392D4536393346414644324444422F636E782E786D6C6DCD410EC2201085E1AB90D9DBEACE05D09878023D01A1D34A8419C380F1F82DA68B9AB8FD
311
FEC93C3D7C52546FCC12980C9CBA232824CF63A0D9402DD3E10C6AB03A3397DD192872090D3406ABE7CCF5B5D18893ABB1690CF4DCF02282E5EA8A5BB96FFE536F285CB347F95BEFFE81C9ED5AFF9D5B1FB575BB00504B0304140006080800C970704CD14A07BA7E000000A300000007000000636E782E786D6C4D8CD10AC2
311
2018465F45FE7BCB6D110AEA7099EF319A1B92D361337AFC3476D1D50787EF1CDE7F568FDE36BD5C0C029A130164C3234E2E2C02F23E630AA8973CC5B8FFDD008571B5022A06C99714F376A0C9CE63F6957A179E0754B78B690821980E4463D5D11653C618BE5F596794D1ADD64331CE5529F3EB95AD79F905504B03041400
311
06080800C970704CC34D57E9A900000073010000130000005B436F6E74656E745F54797065735D2E786D6CA590410EC2300C04BF12E5DEBA70400835E500FC800F84E0B411AD13252E2ABF27A55740421CEDDDD9B55CEFA7A117778CC979527255565220197F75D42A39B22DB652EC9BFAFC089844F65252B2630E3B80643A
311
1C742A7D40CA8AF571D09CC7D842D0E6A65B8475556DC07862242E78CE904D7D44ABC79EC569CAEBA537E3521C16DF5CA5A40EA17746733E0B6615DE725F206F18B9481C510F1F6847F6BF808BA31F02E0F5C4E609504B0304140006080800C970704C3DEE336E64000000790000001B0000006175746F6465736B2D646573
311
69676E2D7061636B6167652E786D6C35CBC10E83200C00D05F21DCA56CA76D41FC96062B120735B69A7DBE268BB7777961F8D5AF396893C2ADB70FE7ADA196782C2DF776D7A97B5933C430F15651E5469C55D70F80A4992A3ADC954792C525AE70A1E4D6AD9816CC044FEFDF01FE3FDE907802504B0304140006080800C970
311
704C81CA94DDF8000000960100003700000041433446313030302D384230442D413338322D383939392D4536393346414644324444422F4173736574446174612F636F72652E786D6C8550CB6E833010FC15B477830D0842641CA1A67C414FBD59B643AD041BF951F5F36B072AB5A79E76353B3BB33BF4F2B53E8A4FE5BCB6
311
66045262289411566AB38C10C30D9DA0B830EAAC0DBF685018BEAA11320C8C2ECEC6ED80843541998C1A2BD50172EF5580423C523382171F6AE5258F2131FCBDDCB8B8F34595A4DC798CC6A8E5B1AA6552D337AD1CB0E9A59D09C6180D753DA0A9E967741A068CA6D7BEADBB7EBECEFD44ABBCCC68D0EB8FBB708A072581D5
311
989C106E10E9DE487BC6DD990CEFB4CA4C467D70E9E7C3347F97ECF2D5571E38ADF6E91FD5B8C9FF55A336A1A90FD57DC30323E9C8E780D12AA794CA33C25473A2EC1B504B0304140006080800C970704C8479C32EF30000008E0100006800000041433446313030302D384230442D413338322D383939392D453639334641
311
4644324444422F5265736F75726365732F41433446313030302D464644442D413243442D323042452D4635433146464646464632462F7468756D626E61696C2F302F636F72652E786D6C8550CB6E833010FC15B477830D0842641CA1B67C414FBD59B643AC041BF951F5F36B072AB5A79E76353B33BB3BF4F2B53E8A4FE5BC
311
B666045262289411566AB38C10C3159DA0B830EAAC0DBF685018BEAA11320C8C2ECEC6ED80843541998C1A2BD50172EF5580423C5233821737B5F292C79018FE5E6E5CDCF9A24A52EE3C4663D4F2906A99DCF4552B076C7A6967823146435D0F686AFA199D8601A3E9AD6FEBAE9F5FE77EA25516331AF4FAB35D38C58392C0
311
6A4C4E08378874EFA43DE3EE4C860F5A6526A33EB8F4F3B1347F070CD36A47FFB8C54DFEEF16B5094D7DB8ED0A0F8CA4E39E0346AB9C4E2ACFE852CD49B26F504B0304140006080800C970704CE104A5DFF9000000960100006600000041433446313030302D384230442D413338322D383939392D45363933464146443244
311
44422F5265736F75726365732F41433446313030302D464644442D413243442D323042452D4635433146464646464632462F7468756D626E61696C2F636F72652E786D6C8550CB6E833010FC15B477830D0842641CA1B47C414FBDB9C62156C0467E54FDFCDA814AEDA9A75DCDCECCEE0EBD7CAD4BF629AD5346F740720C99
311
D4C24C4ACF3D047F4327C82E8C5A63FC2F1A649AAFB2870403A3B335613B2061B4973AA1DA4CF200B973D2432696D8F4E0C45DAE3CE7C147867BE41B170F3ECB9CE43B8FD110D47448D514DDD44D490B6CB8D623C118A3AE2C3B3454ED884E5D87D1F0DAD665D38E2F633BD0228919F56AFDD92EACE45E4EC04A4C4E085788
311
346FA43EE3E64CBA775A2426A3CEDBF8F3B1347D07CCDFC3FAA1B95A68B14FFFB8866DFADF3528EDABF270DD150E1889473E078C1629A5589E11C69A1265DF504B0304140006080800C970704C17C3B95006010000B10100005C00000041433446313030302D384230442D413338322D383939392D45363933464146443244
311
44422F5265736F75726365732F41433446313030302D464644442D413243442D323042452D4635433146464646464632462F636F72652E786D6C8590C16E842014457FC5B04701AD8E13646275F882AEBA23CA38644630024D3FBFA03699AECAE691CBBDEFF01EBD7CCFCFE44BAE5619DD009C2290483D9851E9A901DEDDE0
311
092417465763DC8B0D245ACCB20151068C4EABF1CB210D463BA9A3AACD280F51582B1D488667B834C00E77398B5478171CF6912E62788849A638DD7D8C7AAFC623AAC6D04DDD945C016BBB82638410AC09A9619B571C9EEA1AC1F65A15A4AC78CFAB966631CCA853F32F7D58A57072048C207C822887B8FCC0C51995675C7F
311
D22C3A19B56E0D331FD038DD0B8EF3BE872DE97A48D0FB15F2B70EF3ED104EB33DF807E897F17FA057DAE5E400EE090B180EFFDF1E18CDE20243D9B61B6A5C36FB01504B0304140006080800C970704C1596F380FA000000960100003700000041433446313030302D384230442D413338322D383939392D45363933464146
311
44324444422F5265736F75726365732F636F72652E786D6C8550CB6EC32010FC156BEFD86047711C6122ABAD3FA0EAA937041B1725868847D5CF2F24AED49E7ADAD5ECCCECEEF0D3D77AAD3ED107E3EC08ACA650A1554E1BBB8C90E2991CA03A09EE9D8BBF685059B9E2080506C117EFD26D8394B3116D41ADD3B88132048C
311
50A96B6E4608EA035759CB1433235CEA9B5417B960CDEA074FF0948CDEA44667377336E8414C4FBB99514AC9D0B60399BA7E268761A0647AE977EDBE9F9FE77EE24D110B1ECDFAB35D799411358896B203A11D61FB37B63BD2FD910DEFBC294CC143F4F9E76D69F90EC42B0697BCC2C09BC7F48F6BBAE9FF5D93B1B16B37D7
311
87228060F9C8FB40F0A6A494CB3DC25C4BA2E21B504B0304140006080800C970704C45EDA40EF7000000940100003500000041433446313030302D384230442D413338322D383939392D4536393346414644324444422F536368656D61732F636F72652E786D6C8550CB6E84300CFC15E47B2001C46315B2426DF981F6D45B
311
14B234DA25417954FDFC2640A5F6D493ADF1CCD81E7AFD5A1FD9A7B44E193D00C93164520B332BBD0C10FC0D75905D19B5C6F85F34C8345FE500090646176BC27642C2682F7542B599E50972E7A4874C3C623380131F72E5390F3E32DC3DDFB8B8F345E6243F788C86A0E653AAE6E8A66E4A5A60E3533D118C31EACBB24763
311
D54EA8EB7B8CC697B62E9B767A9EDA911649CCA857EBCF766125F772065662D2215C21D2BC91FA829B0BE9DF6991988C3A6FE3CFE7D2F41DB0D7FD4E478B63F6C7336CF3FF9E41695F95A7E7A170C0483C711F305AA48C62D9038C35E5C9BE01504B0304140006080800C970704CD527F11501010000D80100002D00000041
311
433446313030302D384230442D413338322D383939392D4536393346414644324444422F636F72652E786D6C95914D6EC3201085AF82D863831D597684899CBA394157DD5133715162B0F8A97AFC42ED4AE9AE5D811EEF9BE1CDF0D3E772471FE0BCB6A6C7ACA0188199ACD266EE710C57D2627412DC591B1E6C1819B9408F
311
B38C059F9D8DEB2E4DD60430593556C12E4AEF216034DDD3A5C77E7A8745163286E4F0B76295D34DCE50B062F3091EF4F2834E0E6400854545594B684D58F3C20E47DA1C59F7CACBEC143C6A13EA6A6F06CB1B2864D79022258CF1727B4EB6A8D56ED22A7D525F35382C86A7C385514A497BA62319EAB6226DD775E4B9E9EA
311
CB7019AB713CA7220916DC079746B317C943F82BBE81BFA2C555FD33DA46782C1E429579CE8297DF4B4867DE89F802504B0304140006080800C970704C61B6D4BB06010000B201000008000000636F72652E786D6C8D50C16E842014FC15F2EE28A8D175836C4C5BBFA0A7DEA8B096AC8201DCB47F5F586DD2DE7A7A6466DE
311
9B61D8E57399D15D39AFADE98066049032A395DA4C1D6CE18A4F802E9C396BC32F19202316D5418281B3C9D96D3DA0D19AA04C428D95EA0085F72A001AE7F8E8C08F1F6A1199D84254F85BB68AF1262695D16CD77116F4F2B33A3A258292C00B424F989498D6AFB43A93FA4CDB3796272567DBA6E561A56574D757AD1CF0FE
311
A91A282104B745D1E2BE6C067C6A5B82FB97A62AEA66781E9A9EE56999331F5CFCF37124E60CC88B7BF265F94E71F66EED7C08622889AC99BF80139627E24FE86D95FF08AD4D288BE3E0BEE181D318E84144E3D4601C8F7AE34C6DF36F504B01021400140006080800C970704CCAB1218CED000000A80100004F0000000000
311
00000000000000000000000041433446313030302D384230442D413338322D383939392D4536393346414644324444422F4173736574446174612F446566696E6974696F6E4974657261746F7250726F706572746965732E62696E504B01021400140006080800C970704CAC6535D2E8000000300200004500000000000000
311
0000000000005A01000041433446313030302D384230442D413338322D383939392D4536393346414644324444422F4173736574446174612F496E7374616E636550726F706572746965732E62696E504B01021400140006080800C970704C88E57597CD3F0000904100006B00000000000000000000000000A50200004143
311
3446313030302D384230442D413338322D383939392D4536393346414644324444422F5265736F75726365732F41433446313030302D464644442D413243442D323042452D4635433146464646464632462F7468756D626E61696C2F302F67656E657269635F706E67504B01021400140006080800C970704C28BB58AF8001
311
00009E0500003D00000000000000000000000000FB42000041433446313030302D384230442D413338322D383939392D4536393346414644324444422F536368656D61732F436F6D6D6F6E536368656D612E786D6C504B01021400140006080800C970704CE336299B9F040000341300003E00000000000000000000000000
311
D644000041433446313030302D384230442D413338322D383939392D4536393346414644324444422F536368656D61732F47656E65726963536368656D612E786D6C504B01021400140006080800C970704C8DFFFC99640100009B0300004500000000000000000000000000D149000041433446313030302D384230442D41
311
3338322D383939392D4536393346414644324444422F536368656D61732F52656E6465724D6174657269616C536368656D612E786D6C504B01021400140006080800C970704C5564BFE94D000000570000004700000000000000000000000000984B000041433446313030302D384230442D413338322D383939392D453639
311
3346414644324444422F4173736574446174612F41737365745461626C654F66436F6E74656E74732E62696E504B01021400140006080800C970704CF8658340580000006800000045000000000000000000000000004A4C000041433446313030302D384230442D413338322D383939392D4536393346414644324444422F
311
4173736574446174612F53747265616D56657273696F6E5461626C652E696E66504B01021400140006080800C970704C1C2935BD38010000A20400003600000000000000000000000000054D000041433446313030302D384230442D413338322D383939392D4536393346414644324444422F4173736574446174612F636E
311
782E786D6C504B01021400140006080800C970704C79C592EFE7000000600100006700000000000000000000000000914E000041433446313030302D384230442D413338322D383939392D4536393346414644324444422F5265736F75726365732F41433446313030302D464644442D413243442D323042452D4635433146
311
464646464632462F7468756D626E61696C2F302F636E782E786D6C504B01021400140006080800C970704CA233C2345D000000800000006500000000000000000000000000FD4F000041433446313030302D384230442D413338322D383939392D4536393346414644324444422F5265736F75726365732F41433446313030
311
302D464644442D413243442D323042452D4635433146464646464632462F7468756D626E61696C2F636E782E786D6C504B01021400140006080800C970704CBE89762363000000880000005B00000000000000000000000000DD50000041433446313030302D384230442D413338322D383939392D45363933464146443244
311
44422F5265736F75726365732F41433446313030302D464644442D413243442D323042452D4635433146464646464632462F636E782E786D6C504B01021400140006080800C970704CA2C274267C000000A30000003600000000000000000000000000B951000041433446313030302D384230442D413338322D383939392D
311
4536393346414644324444422F5265736F75726365732F636E782E786D6C504B01021400140006080800C970704C61172C740C0100005503000034000000000000000000000000008952000041433446313030302D384230442D413338322D383939392D4536393346414644324444422F536368656D61732F636E782E786D
311
6C504B01021400140006080800C970704CE3603EBE7A000000C20000002C00000000000000000000000000E753000041433446313030302D384230442D413338322D383939392D4536393346414644324444422F636E782E786D6C504B01021400140006080800C970704CD14A07BA7E000000A30000000700000000000000
311
000000000000AB540000636E782E786D6C504B01021400140006080800C970704CC34D57E9A90000007301000013000000000000000000000000004E5500005B436F6E74656E745F54797065735D2E786D6C504B01021400140006080800C970704C3DEE336E64000000790000001B00000000000000000000000000285600
311
006175746F6465736B2D64657369676E2D7061636B6167652E786D6C504B01021400140006080800C970704C81CA94DDF8000000960100003700000000000000000000000000C556000041433446313030302D384230442D413338322D383939392D4536393346414644324444422F4173736574446174612F636F72652E78
311
6D6C504B01021400140006080800C970704C8479C32EF30000008E01000068000000000000000000000000001258000041433446313030302D384230442D413338322D383939392D4536393346414644324444422F5265736F75726365732F41433446313030302D464644442D413243442D323042452D4635433146464646
311
464632462F7468756D626E61696C2F302F636F72652E786D6C504B01021400140006080800C970704CE104A5DFF90000009601000066000000000000000000000000008B59000041433446313030302D384230442D413338322D383939392D4536393346414644324444422F5265736F75726365732F41433446313030302D
311
464644442D413243442D323042452D4635433146464646464632462F7468756D626E61696C2F636F72652E786D6C504B01021400140006080800C970704C17C3B95006010000B10100005C00000000000000000000000000085B000041433446313030302D384230442D413338322D383939392D4536393346414644324444
311
422F5265736F75726365732F41433446313030302D464644442D413243442D323042452D4635433146464646464632462F636F72652E786D6C504B01021400140006080800C970704C1596F380FA000000960100003700000000000000000000000000885C000041433446313030302D384230442D413338322D383939392D
311
4536393346414644324444422F5265736F75726365732F636F72652E786D6C504B01021400140006080800C970704C45EDA40EF7000000940100003500000000000000000000000000D75D000041433446313030302D384230442D413338322D383939392D4536393346414644324444422F536368656D61732F636F72652E
311
786D6C504B01021400140006080800C970704CD527F11501010000D80100002D00000000000000000000000000215F000041433446313030302D384230442D413338322D383939392D4536393346414644324444422F636F72652E786D6C504B01021400140006080800C970704C61B6D4BB06010000B20100000800000000
311
0000000000000000006D600000636F72652E786D6C504B0506000000001A001A00210B0000996100000000
310
504B0304140006080800C970704C000000000000000000000000370000006662782F41433446313030302D394537412D413244442D303442422D3943353246444237453634462F617474726962757465732E62696E504B0304140006080800C970704C000000000000000000000000350000006662782F4143344631303030
310
2D394537412D413244442D303442422D3943353246444237453634462F76657274696365732E62696E504B0304140006080800C970704CF270F1330600000004000000360000006662782F41433446313030302D394537412D413244442D303442422D3943353246444237453634462F747269616E676C65732E62696E6366
310
60600000504B0304140006080800C970704C88E57597CD3F000090410000420000006662782F41433446313030302D394537412D413244442D303442422D3943353246444237453634462F7265736F75726365732F322F305F67656E657269632E706E67355B773CD4FF1FBF73E71C0E67EF7576C9DEF3EC995D46C6A1EC50
310
46649CBDF79E192942562825CE965D8A868C2842C8DE9FDFD1F7E7F138F7078FCF6B3F5FCFD7EBFDFEC41B196891913091804020321D6D7513FC77D8C5070EC3FFEE51B21F068154CC75D455CC028A3EA68992803810109FDDE5D5CEC5521B28A1B422BF80741695D5B529DA1C2D058AD2388BDA9F476F7C2CADC939304173
310
DBF48A452BF8A700C0C70C3D121C1AA15A5270C22E2B9E28763651F7DA0D12CE11077B2ECD0D560B5E3DE2368B1E65C5E1C87384A4CC5F2D9FB8BE39E9B77C753783A37998F5CEF1B4FEE553463245C9712270880DF339E0B882A6BA713D865F6F384C842D440934EF264F4A304F8DE4EEFA1E2BF5E2D91F5ADD9613D6E31D
310
DB33ED31DB1D7916CAF091286EA3D31B9CFECB78BB0060245B943C4C040119FF780A74DD308BA9D028678674EB5504ECF284EE814DAED07440BAF649BE4B55DA2890F4D73E2D489A59EE54FDB0A85B59F2F52C4858A02705C4815A792B0C4A996A2023ECB195073E115E3E3647F64243A8338F2000BCB58DA5692C7E7C3D41
310
3F963FEDF3CF00FBB0F831A9D51360FECA43819F527B89FA260EB63C5DA676830AA3626A3693B23F1A17A0DFFCE3EE164E31B5365EDF0C89EF64D8E38AB0BA9A1117D7C3A0EC44F44F4023095E80BA610DE336D0F99593A88BFC5306E72DF98F7FD132ED95878DF2964EA7E43071359FD83B2BDF9C6B5BDF768F0F3C0FC351
310
199526F53D9460A34511F75D1B63E488178569472C91A94497807A3FD4A390C6558F26D416365C3656DE6E769DA9D8FC73774E1709812842DD8EF96AED1960F79D21B395CDDFE6F92CB4EB962A4668C76990E2EF29798C8941D67DA50F4A5F947872460F1F6FDB794E8A29FD7AC0C0D6E0714339CE258FB17AE8535221E346
310
4A10F29A0BE5EEECEFC5675926A89F49EB14E5711894F6586DB5754EB4D5DA9C6437EBA57DB97A24F8B8A8DB295FFD73266CF57E82694DF5166DDF93573AFE9C9C5EB05F8FEF8E89E0A8917B0B3724DB7BEBB53252581EFC3E38166BA131A3A5B42FE2AD00A769BBFA4458D2DE7822F8C4F63D0B8E21B285AE13325F3410A4
310
35C648C9D91FDEB109E73CEDA7BC796961AF79175E1A3CE4C5E8B0D009B0C9E29EFD98BC8E97554E3D8D838424E270F7685226E5AC268E021EDE3522D583E8F20C0BDE2959EF5BBFEEDAB32FE9A3ED0E39F211A86AA9DEBFC68182EDED132AB8BB794442D2D7EA9F4D8BFF52BC4D55BB165124EE90A42D101E67BBBB292FFB
310
4F66DE5BF2300E44546757DA7CEF8932BFC9F92A0707953491A55C5A5ACEDABD9FA1AEA01BAC3DC5A24E22E7C47213493996EFBC369D086ED9397C9BA6C7F9855C7BD5E15BFC8C53DB3D2A4C5901A57ACD2FBDF4D1676E95338B2C2BCE65FDA4C64F5FEFDC7D9CA5AA1FCF11E193F2FDABF0F4916BF13FB916A224380E6462
310
A9815F2300DC49CC4DF8D055CEF76462F4B7A7ACA7365C2707891370BC1D0AA6203C44CCAB47084FEC057F27FFCD57F89B8B9852459798A675C66BD7CE572CAF71FF7E6D7ECF7BF62CAB7B3F1107DCD04DC55A3F9961700286141C94A4F771FEB2BCDA2DDEE0CB0BAE402FF1DB0100F8E475DFFFC074DDB4498AB7D186A765
310
4DDB1CB680D703D47CEB4E72F8CB13D86A4AA68116E26387B93FD6738779B34FEDB8E517EDF2BAF28D9BE93A1D3A164320E07D42E514725C29515FF361754213EDE06B079A2E99EB1CA82A02019EADEEB87B9AF005BD04BBCECB14AACD6B24EFBE482194A97DD32400685FF1FEF1544D1B14EFB1E7F08E6D2CD2AF52DE757F
310
35F5E62332EE88EA26417AD5C3E0E319D68F25414E6D672BD4522B278C57D18F0113921C71D96527E091F00CEB15AE23D24667369BD3CEFA10C7549D930890BA4366F4EBC55F01F746109F98ABCDD5A3EE06619C6AD78AB33E48E4C9BD21BF7478B385EC05C4F8987E2C1BFA0A60EBEDAA0AE0B015C2720ECE180FB6F2DEFB
310
EB822D96338C9B63822183BBF52FB664A7AE57003AABCE512BF77E7E31BDA2E739AC4C131657DDFE5225E900FB56CC01CDE808FA4A9C9DA16AC679656BB64796283D89812B8F91136AE18EE5EBBAF47A73BE3C153EB5D4CD491B4BFB4FE690A4CF9ABA08C0D8AA64220C438C96EA6CA80B58FE5761E697B3A292EB9FBDA502
310
FA863E49FE694ADDFFF9D62C520BDD1A22014147A0903A05B9B729F54272EF83931FEEC057BFF8C8055C279EAC5C0011804828734024F6CFA319C9CC6867C727184465CD9BB7ED386AFFD96B294A85E3802FAE47244602D8273615952B98C4F23F7EAE4463D9D638EEE374A20959E0FE519C4CFB0FBFE5DD80C2AA3F9DB961
310
D1BDE57E67C9BB47B77FDD74EE3094F5DBBE3EBC1FBDB7393F5116263009E2EFE1AF9A221B2AE234C902BF70E9F280ED23E73908361565964333A3F01D0B006AF32FB21AA1316744B489D5A198E85299241735BE559675130955C902A8ED761FC0DBE337A9F91919AF5CE32AF902ADF9AB2615E00E8A94586BA1A90839B618
310
32FF1BFB76D2EFADE6DB1BA04CCAD3DA649E7E2A0219F592E22F2AD54847EEA8E42271011E9074F8F3DD9FBA6CDF88FFC9FC7E811AD1CA8F4557CE4AFC7BBEDCF0114A48689F20A584520C74DA8127124B767E2FB91A6B186246727BE63C9445BAE02088D58B8EFDC0F1072407CD9B89A13F6303B4A928F593AD489B58E686
310
9325790ADC406036C591729FE14021F94B7796BB11848D463536A092A26F077F94639F7CEEE2A724C66EC885F4A24F8B8A0AC321F8FD149BA529460FAA34E4663C02D41FDF80BCA222D42F0ABFF8490F4FA74C673807C2051D8E467B47B616072860069A9A303ABA9B319D58404461401B0A0F9BE5E1E151C14BC33B32ABE0
310
3DDE91708DFAEB15E7C0D593C86BB7D7EC17BE56E57975F077BFD5525F3A1A361D584A75E08CF29FC7B44B2B3085014F3A5A14517377C3F6B8F37E59514C3B12F8AACDEDDA4DFC49BE5710101534CD6FB6DE15B50F11A09472AABA727F0C49D9CB906B158030065F48EB3625E010CEC1D511D0053474B11E6A4F01C0D6EF1B
310
ED3A944FDEC70E0DDCDC756C86545910E0DAE3BE3AA9A404574C2995CD5CAF9549226BC94B4F4F0F5F9086F418F6B32346464610D8BC7391D3C3A3CCF04CFC1FB2A3A3170E369511868F14EEA4E5E438CC73DB1F3248AA94B6B2FF33B222FF3D1E7BF146CAD229770158063BCE4F5391964DF62F7E52A7BE0EEA829C9E13C4
310
C147D6F93FE59E111DAB5E4594D6F3CD1AD375EE039930EFE5AF2BB2D41C83C7DABD8C659BAFBE8FAB392CA634F3D15C1D945DB4588D2B0824A4EC928AAC565557CA2F0DAA588CA5BE30B3A8004F7BF005E96CBF891D7F18112A3619FDF530DC8AA64954258E1811789B5189B49B4EB53F5F89F7D37523894F3EB57B373763
310
C91E502F52CC99EB7BDDF933FC324C4FFC2561DFFA7339FAFDD0A4BFBE6D3A8FF9ED1FC49898139864602458968913181918F719CCF5A68B2EE9C1FF050E34E63107003B8120FA982C21B30A874E4F5E4B38D5A8290C4B8D9BE48A0BE31EA995BDC37AC6DE90BA17D259DEF53605D55922FEB1855D915B659FBEB350EE0DFB
310
2F9F766E1C84CC8964B75D08667445EAB966015F63A18A9E0A325C1B3DC628C0D3CB60F767FA93CC65F25458BD23C3B312716E5F40E5858AC06EBA9AB14F95DB99147B832069201541D09A0D856E12C629CF32683760EE855537D1901988D5EBC156676C7DD51D7207CF3267AF1D76C2AD867315E44618015313A98B19941C
310
696FED3461CAA9B5415F918556D7802EDACEFD6B2E45853A9735DFC9DBF7E440F9319F8B6805A973BCCDC76C069A9144E51F187EDCC12FC31B5DEAAF0A76137199B106EC84ADA6B6EE697D4E6A96E007417F4E880E8B1E89B4BCE9D81EF611E2ED8F0C1A6C25F620FAFAAB656A7C42D464880E8AFAB0E0FC8EA38CA9A8AEEA
310
EE3E4648BA4680270A89743CDD3E6C6CBF34B7B640EFA285ABC7EA0A1E28F3CC963D114A80123EE66D0AF7D5380EB41909B605AB4765B709B808590458157E69BA1378FEC4B48CAF6A730E3BE3C5EF2DD1A5EAF94B1DDE50CEB55DDFD7EE9A16747FA4B223359FB1FCC69E1194892BABB93A1D5C4E807AC0EA2E30180811E7
310
7A2291F6E7F7FAA5E0F60215BC6024E48DE436C511F0628B8CA189982D4D83CCA17D305A7E923C37941CFDFDCD93ACAF735EF5F0E61BBD3E6C41A59B242790D3A3BAC7064DCD89AA2E37214EC839820949D5CAA31E240D2948E48F690298974A96BA9A8432BC90F5071D6537C9666EA4564796B7AFFFA548077BEEA75F6308
310
3435074BA182F3699557397F71548383FDA8CA34D99B981E72835ECDA5DDDC151315173D05A21F651AAF8524E88209E2E7A737ED1045800CE3390050BCFB8BE588DF111617874C62575039CA588EEFDEFEFE319B739DE2EDC147092A262611E159650E787917885EF08F1F51B8F2D8A71D60B58B190FEF9541A1BE94BC19FE
310
A50784DA1419FE4B0FB51B8D36B5FF8E1286FD8AF42B91E59A5F1CC4D60174E764045FD8C57B18209B217F89A62252BD20BE0E63E12B8E8F029FE19E0E8D0870F58721A557082250D5424F7909369376E41666C0EE77CD87CB283F661D5FB6D0DA023CB67320A20DC7BE661E9E1BFE5463085C557DA1FF9BE835733766C3D1
310
39F2CF9E2208873AD0EB4814DE9E6BF2CAF81614D4D43906ED1C05A3265CABBFE192770FC2F64F940CB6B17B5F166F133C9AEEAD2641807C3E69515171DD74C4A85311513D6EC9530B3B601B6BA3EBFF3B5C3D2F7D69765141E345F75433953D013ADDF8F6AA7DC3F4A7563FE5C7D367937E2900D7EAD0F9FC9A4A1A9B5BDF
310
1FEF08532660C01C5D6DE22199AA774383E306DAB87E301ABB7D213887F9869D4942D0D71E94B27EDF216A318BD488D45DF84529EF575AF3C3938C0AAA0215B01994153E2054A0B894DA5C784980633AAD48576957CF4AEAEAFADC7C587368551C73DBE1E57C58AC713303A8BFC258BD04B51724459FF9E24C03A81E0E0679
310
CEB9B348C0DC998FEB9C6D6EFA77D247CC8F92D3848599ED89A23218D0636465AD1CEEB7DC140D7426F83491C4E8E8281C2FB35240918FFECE880CA2A42D70E8B20B34DF5221C7DB0CF90ECCB9C745B37A47E9B716FF7A97B7A252C1F3814DC7B1E1A7F72B8751D524EF7CAE45B0C73B3BE7D08ED39781B380DDFC9AA4A474
310
9C9493DB5BAD07A6EA6C092FBD0E85DB004DF06B8C9D3089C5320187E4CE1846158C7EA7DDAE8AD9AFFF21AA3A1026BB06A259845E8232DEE62811A4DA9CEAB3A4887320B76E2AE5615EAB7BDF738CBDD01F1E64064BC13D9EC53576751CA8CACD58B3CEB0E6CA585BD089B2A59B9FC101403387AADBDBE70586B93D64BF3A
310
D4453EF9C3B6A93817E8346991798601344F79A83C51F3D50F7BF2683A3605F51A72449489E0EE6169C749C60B1035651103AEE24D24E51A759C840DD3FC6504DA6FE107510E447B43461C79D22970B75DE5E1BD3007D1AFC619A4A4A69B5626AF5E9B8374E20677F77E2F8E73DF868E8BEC7EBA7B6A75EEF7205E1AB9486C
310
B642741D6E03FF13FCCEDB1C4AC129886268B01CDF4B124AF797CF784F3C6DEC97A17D4B558070A0F1C04DA4FF9BDBF34159AEFE958479824B3F58EBD1E19088A2AFDE501B6F2052368A3FD0E650A179EFAB1561E1D27527077136E652676C3670F42DCB3352F48F6BC86D2C3B0051727E41A0A4DC6CE2BE9D47F5CAA2935A
310
3C0539AF080665997194ABECD723B08129CC5B6B21D2E7D54CD4D12610E7E9FB8306771A89576C7A982002775ED44F3F744CF21EEBB27A631671D921938AAEE3EB0D19CD1E083727F607823E817BF599DCED5394E37EEBC2E88782E638920CA641EF74D4CDFCDEF06F4278ECB18E31E7E9876F2D783C8BF429C75395F57E98
310
C2B495A3DA077EB3AC3C158608B6B57FE3EA48484D9A480096FCEE0DE880950E7E5A5714131C5C41AAA29FD19AE81AC145FA1B9E85C7169A5AB837B213493DF7E9AA4B5FBF9CDEB36EBD21EF1181B7CF7366AB2A951D01E37AF4EB835D1BE8C117CFBE7625D2EBCDB0B20C5A4B45CED0BCDE3EE8DA9DA78C2E21DEAAFFD119
310
7E463C33CC6A80FB785669B856EFF7A8CCCA2841B5A5369173320B1170C368B2748D81062EA0296E5E2D95D7667A4A46D98A6FF475C76AAB0A8C8D45E226FAFC9FE0133EA9F60111F99CA81ACE03A1D14C89E8B0D69079C91464FA1D99E651D0EAF606F345C42A8A1AA9BA391031582B96D5B4176A77AADB01F12FD298A75D
310
EEBB2C82F0B8650E880722F8DDD90C56A7A058E5FDEF1AC93545BA27367C76F5D8F9690CB6F8DAE141EDD7971F0FB548A2AE435F224D6E5954CA155512F7332029D5A1230854B79F258EC5FFDB09F5F6343A8EB193229B7F7E79B3E48F8E183860B38C8269D1B53738FF1E0BACF6AADA6D4869E9DE708E79B5DADCC09B1BC7
310
6F649731CFAF59A83FD8BAE4C749D66FA87A3810D4D62FFE826FA400C0F325D2BC0F3CA35F5847B82A2ACC7961745C823E4D863D54460AF792CE6F79B5C7A33B25C3AEA6CDE15A919B6367D781E9D44F61BF828672594A3E1D9EDD6DF179A81F27EAC05B936575D73E05C209DDD2115CFB705DF9BBF3C911589B3640735E9E
310
618FC9C36A7326C82B2205E244C55D56FDB9D5DC93CE958D4BF8174D2B3DA54CB3C09F2C2A6DFF73D23B2197355761AD421EC581284A7EF8DE2CE3497C0C804D49B41DFD6A7360844E5BEFFB495CFCDB97A4595911CDBA623274CE852B5E278AF0BEB1770E9D37CD977B2766A7DED0E94B840E1E95E8C77DE5CB6354AF7871
310
427C28ADBEEF7BA0A28E19DE9ACD75F379FE373EAE6DDDAE3834692F9C2B03B4FCA8FCA9ABE8EEEBEBB725B88A7C90941E850682CA04061A7DF0CE82ED49BFAFFD42C309818FAE14755CAAE78B0F73243ECCCAD7DF58FCB9CDFAE7A4D3E6671A613639130D056C8383C8F4FCF4808C331E544DD26E4755D09EA05253B3049A
310
1E32587CC25D72E073E2CD96D04A71BBCB0038FEC3F53D254199C3CDC67CD66640269431860225392B2CB3ECD0B4498AAE78BA1994246AE1EE78F2EDFB79F6C6CB6B5E279C4D373FBC21CB2698C9ACBBEB6A4BB6B39E16AB0E421CCBFC7654D81ED86022F9BB522146F9F4772E2D0E4FA70120C95A85A417BF5078B232F475
310
4363EB1750B2AC2148EB46B1EA72AD9B4D23ADCBC589D70106C3EC2ABEEED84DFE28E718C6C83502C28E9FDD3B09DA0A6F6F7B72B706A31C9E2A331EE70DA56A083D2177BFD63C55B11D8D949FAFCF90B23A1E24B9B5018B9A17E99F2890EC302F330FE7936E2C23F0D237EC8916F5166AB84B62A21BB0B950146962D754F9
310
2CC2C8877BED8FC7B7B25726DD19545392570B3A2C66B58F027BEF412E552D12A588C4A3CC5C3193FCB3485EFFF700D0B9EEC077754A33DC1FB9E25AF814628F91DDFECB667D3F7690803F38D13F8AE39353523BB08FC6760144AFA2CE28236F65EDBB3D5F59A57D612B99E3D7E5F8A851666BF9B5A6658EFC96EEB37A378A
310
BB0EB3FDDF1303AF32C41BD1C8560745D7BD81066B0D6313359CF488563D3BA3F8E2185D1FAA3EBA1397C9D0E3DD232180A4DCADB6AF25DB3AC3CC26589C8239E66E81547BC7E2F328F9884764CA37EB5DBE390DFC03A5246B456A7C3684C4377D0EEF9A350680FA9A077E8B2957B489E09AB1AD41316944C2254B5984830F
310
691C93CAA767EECF976FA5647538830B5E63236A6F0365C1E0F3E327F24FE35EDDBD7360B0F7374837409F7A6311BECC12B7026D4FA1AE204FA3F5FE904B1F420C7A9044AE58E403E7C4848E7DA25DC9EDAC79DD756FAA26B9EA83ACE8A214A2612A22AFA19DAE7DBAC5F8CDE1292A485F98DAC731A29FE01A3966E96BCB9F
310
B5A4C8830E1B9AF0C54B87FBE221A097036E5D28D1F869F810C06A9BB0AC0612F69AEBAF893C6E7AD59460208BAB3A6B09CA4F6BDDAB8CF0D1F84B72487498395A70DCD754796E271099A567A55CF242BBED64696378BB6CF25EF0FCDB589F3A82F1116D010A9AB9FA4358809EE0C973A2B4229BAA876A70B03AB49CBA7FBE
310
71DB1832FFD32F9BF2C8E98075CACAFB36921235D0F552B6A67E94E094097A5D7DF681B40623DA535ADA7A9AD8E9A62407D7C9A5AE51D62A17A83A23728DE86BB56115804D3F2675F2C6B87541A0FC497BF0CA86420F558C9859EBE9FAD62747E323E3AADC03FDCDDFE7407B09DA90B44E3185723C5381EAEF589765E2F7A0
310
99BA46695BAD60CEF3491B8A171F5F56444F7CE9455312C3498C74173AEA0214EC029833B34B650CBB5A5508D5091665309642791708ECF27CF11DB3D797D6CFE474453BD4BFADB768094B2147814D81C7CBAF8228DCAF5564B5891F5EF6A860EB2E323CB82AB868D8EA048880D63B0DE5341F1B3D53297B928A11E15F25E5
310
148990F710747C3509ED14909C552EBE3973246FCE55D00564D8310BC3EBC5085D08D806799B77D6C57FDF5E55837F9E934F09C03C729271B64F12D0A9F9E938107CAF7BF1EC8CF1BB9B42363D33070F4CACB425E605DDB0A34A12BB936DE286B9887A4E2E558F0886498BFF49C311D96C277CF6A9FC0D75AD0ECC5226D7E0
310
E3572012E56D7FDE4410CEC7A6D0F997F225A2055B8B92E3956E875AE4993CB3D4C9063AF98FD45E1BAB165640A43439A2C9181A7C355B297C0A0CCFFAE19B6FA3C2BA238A885FBC98B8F6DAF4B94B97304878DF4D8BFF6A4AEDF79E90ED4E68F00CD7299F4E0D83E35601AF0CBEF18C1E870E74758FA91F5131075004DB3C
310
FCF09AE1DABC11957FD9808C92E8A678CE9DBE40DDA0E0D1D505AAFBCBA208232BFB6FB3704E8985E61ADE53DE74152F5C7DE74B1DEDCD37DC3E8FB30D7EBA8B9EFFC3606BF90B8D438279CB7709FC7C00D327F41817EEA71CD9E49FE9C8C9A81C70915D9F0F15958EC5AA4C3BBFAF46986B90F188BDB24B89DE3C6F29EC3E
310
6F66D84856EE96A35E657CA41B41EFD8DBFA16AD6E91439EA92B40B21C053249F51AE50EB0B24C770FFAF40DF12C8436366819C48E36547D4E7B72FE2BBF10828583057814A668BDF183F6B2E58DFB151103E56303E63D00F39C27C4661605DB644D19175D02E3F0241E8FC3458D17AAAADB117CE9EEA690D0DB01E634878C
310
04C2C9310B69FCAB831151E3AD293BEF6E46B0ABCECB50F5939B39C613D41E81FAE8D34CAE3C4566B761D37185FE864AC32FCB71AEF39DAA5BAB88609BB980CD2F07A8F941653B529567726E2B2A58D079DD57E1E5E31426CF184A04D7B03B985F276D47406AF276FE32E3328BA866EB1FD39BEF57863A317634AA5FE46740
310
9B3873F5069EF0D71AF00AD189D17BA1974ECDB2D623E9E14086386A6AAB5807825C37B015BFE892AFD154920EC437EB945D958E18622E1E0FE2FA06557CE4BB9BBD05A2D40E774DA2B65473791E314B7D6C886820B2FCFE4AA272B3B8B15E7344A145E8AF919B5454D89D36D413E87211186BF6F645E5EC94DCCE8E1C7990
310
22E4EC9BC86D7A0F2AFB1FC4B2CE48F84B3F49ECE65BAD24CADCC07EFF39AB06BE9E6B27A059938EA7208838455383DDBCFCD967DDE4650EF92A14FF933C975DB20BD7FEEBC4487576485963D757D16340D9599FEB362F775F38CA4185A86F74B629C81B133644A3B18FD056E997E0734F9BE26D11C0AAFC669E2AC9FC41D2
310
81F8B2E1C35AE27BCE05F3DA295488096688719D974DF1B5D182DB7792288697F8763CFB43562C1CDEE11C4AABD5C22B6E33F6F389CFC3477C5919DC0D533F8A7A1846B7ADB60ABDC26C43D0CFC8910B7C15EE22675BD02702ED39DB77A87A192CA7A543E6205B979B9F5A6B512A3CA799E198B2D5797C0AF8D1D872CA455D
310
4D431A7879D4DD76110B5FF7F4176B54477A9EB5E4A5D11214FDA585F0382751D8E2582BA5D2075053298FEB8F1537304E32CB22C2E2B693DC0A760B1DFCA751BDC445AFDCBB12820ED85F6D5298933C7EF1211E9E057684056CDA3FEF3BB6052355E162DF27C59E965A8DDB7F9437EB72CDDA3A090DE65A5B2F50326247B7
310
EC67B73ACC7047FC9B353D6EE990F772207C6EC52B39DC2F3C0754821DAB559F7C1809C7D0DD5B0499D0442E0A6E391B3D5DB46D11E731E6794EC77523FBDAA242ED67F9FA1FB684255671F63C9BCFE6E7E896D51001A6113EF2298BA494E0B0980D1FA5B9D60796554C02256B1E0345FB7C6186B6A19D2DCA270416262845
310
FA4F42DB5D9B0A0B6F07FCA2E56C242522E001E0CEB734AF310FC8BFB57E38E03AACE93B3326A2197891E68452B26A6307FDABFEE0223D3C03C3C73D2D5BC054C8311F12004CAE488E5C29287F8156A2CAA4AD0D7BE6B97264E4139F437CE73ADF52E5134C52B819777C18B323A5924E4F67AFD13B1CDC3A61793A79FAF5C0
310
CEB718E441071E797C6DCCB9EFCF7E4A1E9F3DF3C2F9C9E8294E9586868788C972857FB0556D7A26941A7EEB9B580AD78EC40B85DC906B4120A563CA3B87797ED612D3B035962BB75F6515A393F4CB057F564CDF54F2E5A024514E6A1F901DB80C7E70B1FC05E356A7E72FABF4775B3E3FB8F70A2A8E7B6A94542BB3041579
310
78CCC999E707A29CC795E67A59CC546A5D47B368954CA7B6E75EC9E1F6FC73CE3B4F71F8CB1A6B15923D61EAAEB14626AAA9D04A26EB9C66CD1BE86CA31A5D8703DE04CD1EBCE4F5CCB62F93909AD11E55799A781A956ED27D3E738F4538CB04ADABC7DAEF20BC35BA6A90BCC1DC61BA05F20D8832FFB9BC9B15E2DB838A0A
310
FBB7E0C82A562127E0446894F427794C3037186F622BF24DE1B00AA10A23BFA47B2A180D6DA5AD6F7326FEB8C100C2D7142EB2A0B2A9D1008A09BA343D70E054AB69E2A7EDB783CBD92537FAF4A44D1296AC2792729104B3276C276C951D0CF3CF3F1E6B017720A7B8505A5FF9589365979678C36F1BAF759EAF57C60F1FF5
310
FE9DCF5F8E764FF25A2D06CF25117A8FED51884C13B2B750DB0E4F5E3D64124FCF11F0AD8F1CC3B3DA4B38ED22BF1CB2585EE6BFEBBA63FBFD44F9537B9B37BDD6B358720F98A8125AED4349CCFEB0E135F19E208A04CA7E2B10711185D72E381F448036EF57C9F874E54A971CA37A639E986AC0226DC5AA00D5B14FEA9192
310
234B3DE617814FC221C92F33F1D392F297731B567FD98FD91D989379AF567A65B8ADF177591DB90FBEA99BF4ED11B16E50A0AB1DBF1156D034BBE04D69D08F939D8E92BF525A1DDAFF80ECBC95D8F45D3FDD289FD23F7D8B452F8EBB34EC082DEEE68E18EDDF072060FAD2AB1504DD4879BF67099FC58F6E9DEFBF645D1633
310
4A3E9A127C6F1AF6132CF287E433B43A0EE93812B4AA0B194E03EE3FF91EF9C6ED0074A2F6EB18A96A7C9890B1FCDA1F2095E944DB911ED54C60DF16FB74C8CE9BDC7C54C4F14078CF73C2FFF1F1BBCCD7CF64F71407EA1683DBC410D226627F66E509060D5C0AFD611DE681D509DB8DD12FB1265B03C6F5C55FF4C30BD941
310
87FF692B4F152982502F193098A789526A038AB529A52BC0DC4FB6285CBAC10A8B8DB75DCD9BDABBB221E27D1F8DA9F5EE5926A1C8AA9BA9BC09239C6A7F12914EA3B59EFF7AAEC3FFCCE56F1C5C2980AD072793527565E774F4631DB178CEEC691B1F367BEA0CF2907E1D6B854D527065979DDEF002D8B2ACEA7CE21AE297
310
737EDE1D45B31233B73FEA35BCFDD0B09721FDBAF6432681F2FD10C3E9EFB246FD6E854B344ACC9D8A0EEF876A7314B49B6A499FC650B099D650DBFEC7638ADFD245E2B7839DA5AC5F7D5623FC0ECEEC8653FC9B2BDD1AD4D00A566FBA7186DD3C9CD26512551637498CADB950FEC71ADB9A5524285DE328B8EC7EC75D2345
310
AEC6A27C42AF6D9B92155315C80DBFCABBB7DA0FAE425C4FB896B15C9BFAC4FE67DF5A23D30C93DA4D8F36FB15D100050DA6062E22AEC5F4DAC4F6FEEF97AE05DE63C6D38F9E068A20BC5E3B6BCD75320C5090924E7F93640A7735B1A43451C2D91EE62C6238B797349E59890AF3A520DF4A87095F3ABEC2E61F0593416CE4
310
6CDCBE0E00E2523FCCD04408588B5B6C9DB6459C786CE378770B54F51DA3A5E1DF2A3349BEAAC234A6CF8993B598B3B25B4B113E353A4D750FA7534749430F3EBF2512E7EA3FD43C6AB9A1F765A58463B306721A15D224FAFE8C6F5E3432D57EE697DA0DD5A9D4866A8BCCAAA9DFF1F06047851408FEC060471D0E3EB86BFA
310
F46E4B5E60311DC3E3CEA147C75CF971BE74689507154FF2D2E92F15CDB2B9182B11459FD8ACAC5A85F174BC94A7F4EE4C4F5CAFA7C02E37BF0BC77B7DCD0C047BC316F562A01A441AFA7931CC84A28CB9F4AA367EB515778F29BFE61195FA671F4352E5E46E3A64773F1F76EE5EB36D7BCE9BCEAD837A4D77F8DB8C92AEEF
310
6711920D7C7D0F76B0FD0EB7AB83724CD35BCA7D36DDDF5FBB7FF6F04A91F3E2BB3B8F1A43CD659639507FF6331C5F697BCC782AE57D757A27D97F1AB9E0AEDB43F92F1B2AACDF5FEC8ADBAF9F814E2027003BA2F9E144B1938A7A04050AE5D953B82C45619165C813A10E76DD6906B3C16438064D14CDA713AEC420034613
310
E1AC7241904A49FBF87409AFB1FCB9B72FE7933A87D8FBEDACECE4EDCF6A4FE9FB94D5DEB74FAB7CFEAE17EE965DF980DCCA2D04134994F9A2E94D2265DA4FE6AA7B7AC15FACAC2B5ABBCD7DFF542C5314FDAB2E1B9D8B65220B8E2B638BE008E8DCA22678C820C5053664D15E89F2D735B51A84955E81A443545E9FF787BE
310
0FA700A76D136C27DA179A7C6E8939E01BE756E19CB292798063D8B97F44E8A27BCF3A614FEB8BE974A718E86F7EC99B53CA35FA24F61F2B07266684623A3D4CF073E511F3A10A8FDAFAF0078C577F4DF9D339FE7862E5FA47CF4344209E5BF76D783B1B48E152AD281B15FCB934DCDA49CEC5706B1EE8B460F435324A5CAD
310
154725E21AB8044B75A557A79F6C807B9340AA3D92503E866F4274412926C8C504E4D5EF8C0E68DD0B028781A6B4054F11CF18941F101C57CCC796773ABC8DED9CD91FE5788806C05E548895354AEAC96546D55B0E94A59F148D061F42AA398D822CDECA4CDE79E13469BDCC44FDC990F366BA5978C15F97ED80CBFD73B0CD
310
9B8B83A4F6845BDFBFAF034019473FB9A63BD55D3A4A7284757071574029A4D016DCCBE95DD679EF3C4880BF169422F8C89B68A988D2B13793CAED4F74DE7486C72DC94DF46B8E93D8E02EFCB1FF9B3BA10C8AE7F653DF94F4AF466CDDCEF5776687F7C4C14B63E4EED1719DC2EC482D7DBCC7AE518CDE3D5FF86D39000EC3
310
673C0044E1D308BF05F74D1B5F033A7D1BE7F74BC55BBE3E4A20F920946CA0271EB17BD2B80E5660ACB8A29A79F5E4BBA49D4D945B6EEF4A7EFEAA65E5555BBB57A7E15D2F83C69F30BBB978D2B39F1F26FC097424D39BB33CA3D87ABF64E307938B685BAD44F71556A30B7E712CA4FE600613C3E554B69ADE949A7CFE214D
310
F1FFF05CB82151EC6FC31950239F94CF7AD39DC473F6EA356E5EC2C4EFA04383CEFE985A127484366FBEE3C0EC4FEA363E4F6632AE781392FD45D67B63FB8DF70E82734F431FD3443172A0E30A83D60982D55FA6A2CF86DBA8382502ACC6CDEF3B907982EED1160E14863FA242F9757347E1544275CCDCF71ECD5F8621CBEA
310
326B8BA884AD7F825781923E66971F04010D574C541D8427A438A37EEF8AF88240EED7362C953F5A81DE2D56109CDE2524EA0F5D2F87308C0C47BD97AD605878AB8589E17CA83930CB5E0DCCD75853D68B1AB136594926DE426C367428E9334AFAFF90ECE221BB5DC9E5BB53D2CDEF954EAA9CD814F0E5725F1965DD458E5F
310
8487683AD86B9D0076BE3EE91EB1CECC5331A67A3F79D8B27587C12EC2A6A70474749F27B4C0BBAFB94B34189E88DC18964BE4121B9137FD516C7755356E50D6714E31ACD222621EBBCD1CFF81D87479056A9DA0E0B8EA19D24CF937DA89F78E8650CCBDC110AAB6C4E46DCBFD0446BA9E2060E81F314AC2031E88135E5476
310
AC0160EF5C0DD2EEF1B8B5CB2D198BE9A554A9093B5F7D7E4B5407DDFCA1D9C152FD97F55BFFFDFE802954DFEC8995B983E28AC92F1971E28F531DC407A1280EB125F64A72E617EFB27DFBCEDCDA2D6F2BDADA36873EE46B9BE1782998C63DA7182BC383FB6FD15DA472B175D7E8B4FC88F38D6E07FEAA3FA3CBB8F6B449EC
310
F14D2175E5C5CCA3A42ABF24CA6C9395AF74535F4DDB38CB84F56614B0FD32D7E19CA5CF988DB4449C40E23DF2B16772594554579094450F56F253CD25EA7F77366FB1CFE79696C428BB64D5A41E986189427E5E4D7E2DAE3D5BB4972B3DC44EAABDDDD63A2264ECFA5C786EB0EE1FDC5BE34FA0F08376869FD1E61EA06CAE
310
15191135445EE8F0394161C3266A596AA035572BB0C8876180D8B9C77D307DF9DCDF7365ABDA6F3A2366436457A4DFC1F259666569A9E4A79C817BDD5610E5200FCE894A358EC72858D50EF67545DA81C6FACE3D457BAF70367E1E6BDD9A952FB4F56247F58F523B97E640246051A72F79BE42FFA0B3187F63097F91C48B86
310
8586F714B0EBD5A00A8412C1236E1298F60C72BE6C96B82B404CADAA304AE9F303176B14BA53FBC2D5E86377E35542019E24D97B96A49B2C0E5006E7795954DEAF5DA58958839043C6C70BD3B1B33B6DC5C31316D8A6923F142E26F6711A2258AF977DDF1F970ECC4F1F2B434B96D81BEB6E89BF3BBB3C7C8CC80505070723
310
D6D7D7D3C8CA27CA164A26024FED94B12A86031867241DA53D929636DA600F050BC40CE48B8BA03D69224720DEE2ED2127390BDF5E6EA64527BBD4C4C63FA76BB801FEEC0E61218EC98A8A86CD8313781617877E66692839B9468CF4DB8E50A73986E558E309C0D6F676F921BE02F1185454DC75B111572FF9D27D85EA14C0
310
5AD7271225B391C4275659CA4A43759D0BA44639BE4C30A84DB7F67A41399FB95CBF923B1B1672ABC807C1590557FB18D811983FA97F5E609516D62281D38B1281F68FC75528C35E4CD7DF0F7DBB5E5DD69C414EBEA2F4A5B241B996BA77AE6C772E367408C633EA3E438B68563EA8BE7667F3A4C4FDEEA52ABD78A2820F44
310
3B7914A15F180018D231E64519C56A12F6CA7C8DAE18F06F6B769DBF92329EF6A5D18FBCE600F36BD8E8198DE5CDAA96181F3A756EBA5501CEE58F497EA4F418A2B82565B9BCC611713C0B708CCA1F398B78C5F7D03B3437CC18F13061F55C7BEDADD5ACB1DB0E36D3CE47FF6EA1A563A57E9649EA5D14D1A50EAA45746338
310
1C073777EF1600607BAF6428A7DDC079D47A204EF1E1F1F0589FB054D45E02CE623B3823C317C601E589E22B1E88B448524B86A82828E32345EC18AE17214B42F8C41C6D428016D9BA31DDCB47572561E5A402E5BA4FCE55F78AF7268524AA04130F3A20BA5D1E9F9948EA48FC8F5314FDB35E21898198060034ACE5E3E2BB
310
CA34092518F275190AF65F45867FF0900AA4B81F25427414C372BF51DC29AA855C5428EE1EEDD6B849AD60F6E73475C2D2523F8A2772C840A478DED18A8C5C91B085F255DC4F54EA7AA8947354FD17ECF8FB3B4A0DE7B483CAF3A1165EE05BBA413E5C1FEF3DE1D6B8F2F3F3251C17D9FCAB48A9AAF63AC773A0E413BBC46A
310
9ADF84A566FC920E4D8C52C9769EE3301CADEEEDD92B312E02E2A7E35B7F1E7D203FE5A7D75578B06E99D0E46FFADB8FDA17ED8880390DA29094202D6F645F76F6F96409CDA05495A96E84B04A00D1A6C6C81D7F3DE9376E828CCF144EE50E364ACCE7237EA0BFB5607ED1AC3CFE73794E5B61739D14DF1743441B1AC98F00
310
ECEDE9E7301FA29755FBEFA68C91EF2B314CF510537EF1ABFC9A762496280B546F5EDAAF8A5B387D469FC9A878A92828C88608453ACEC6094DCA54111E7AD5B2663DFE2DD151B7F123B9F4FEF8EE36AB125FD7AD52A59B1B765B3E3F73E3F73DEA93875004D2AFFE3CDE9493B87A9904DD052028949041A91DC0E1BA47BA71
310
4343FD5B25E0A6A09503AFC17C790058A836A324FE31D7893512E28230332F153181C1E018E1124EBE1BA262AA428A518237D1EA7275E48C5C561BD19ED6912EDD8367DA0F31E40EEAE9683DA9257525AEA7B632B97119E17145A90231768A4F3B9120FF32E8319B015E3CBE26F1A754177D8185345817C096B0CE443A955D
310
13AC15E1FB5DEEA0239EC32A3C92241A237B0B02FFCB4F93CF2B02570C8D192E2F2A68CEEB42F12E6F8CEEFF46C251E22B4341C56FB08CCE550E7A9D6F4D6564B9EA52A83D5BF2C6E03FA19D2775E15A8A7ACF30A13C259EE7F5EF2AC3BA354F1500E1A07FC63FB4686E2F12EC69719F9ECF5FE3F35598DF2CE944008CE78F
310
0911BA5BE5D0A34E0098FF038669C26030BA9B300303039852A8F6F496341737CA7E0D2E3AAA36DE0A70AA7D9CA0D54D9AD84B18A44C9E625475E1C97B93BEBB38DCE7D227E67A2D00F531436136355F243D1FC0D712C5765754FA22FCFFAE97919161F46D6E61ACB37D83777B385889770B50765B127768443A5C4D3A4E35
310
A3151111F146B7CA116F918A049F1C272F2CD7976C69A0068773451659A97E0F4A08FE604C3FF6CE7385DB19F4D3ABC8A0D80DA8A42096AC377DB49382B36E270B6FA7570188B4B7D1DDDDA82ACA487CCA5D38BD3BD039ADBAFA4ACFF27809239B722081E2EB9F145320553D183F28471C388BC8814E5045676767AB58A8E7
310
2D1CED2CA731379515D2E533E4CF0B39DFC625F97AC4836831A4DE330E87A8126FA17EBE583D614E71E22A8DBF2825599743E0640037303E8E1B1E8EA4E1ABFA4F62907B5E4E0E5DCFDAB417C36C6848A2B8D15F1E505434C0707E16B1CFC2A1C36A42BBF55734F8F4301DDC2A5110CEE8C0747F69519265012A2174BF4E95
310
5ECD4FDE095A3ABC70536B7AD0B9D7892F81287D667C108703C9B66A221E9A0929D030008F77FF6F5D2108EF5706FC87A3069B976F7C9FC3239D13D283CDEA83597461079FEEE049B0F392889898B7D87D31F8D60ED7B56B91823A8E4EDDB36C6172ECEE42BD42B12CD67994FA0F0DFAE9389356F4CD4425A4B8AA55CBF7EC
310
D585C6A2C2316791E43D5C06841ADBB226A87FD61515FFBB0167B74E56BD7F3E90A57A97FEDCBDF483A0D6699A8C0849CAEB4947FAA90D8E332D9DEBD9F4738C37DA0CAF9CF3DAA68BCB67C420459C7A64498D6E848E5CADE92BB6901F607AA331104A67F7CD650EE169B1DAE94D2C31C2F993632259B6957E246EFE4C5481
310
107B07118607700040E5812A2A2A38DA0076875258C753F60E0F2662C748EDD5F3F3686B8FC3BD6FE631ECCAA1E8B1C1E565AD117E54893E79F4672E32F9E46B2A183DFDCF3EECB4D4D077DBEA0DA254D256045109670050129E9B9B1A9E4A11344D61497A992778095151510C4BB7EF2009B63AA4360635312E4CF668B7E0
310
D3D85A8688E2BD83B569439892ADB63461930D428E0DE42E4AC57CE48DA5CC1449530D8BD3D6A0F08DF20C8E8F570F2CFFFCEA286E30969B4654D498A58D9DA782E19FE3F002181838925592C4A1EF0B332D88B61A92C644547BED490D3A42CFFAB70E36D961F694F6307F72FF15A1C79D5B1B5CEFD353D9E2B52566DEC8F8
310
F09CB3E8359C0F68EBBB7898243E34E12A015B2685AB303C04D3A9E00671FF3DFF0A184E4A2ABEB2B666AF5B3A209C73D8EF29DCDB069C9F391EEE9DD0F74C7BCDE16F8F02E3B8816122BBEB50665775B600549D8BB33A54A6BF940C028118BC6878C79958D6784F9DEAA6E26748386FFAF8D0D0101E2847B6563F5D8DC1D7
310
8F787BE00E2C941AE12148D4A81599FE8F68D4DA5CDED75530ADE138240300EE13B0FC13A1687FED6774662C05A2B7DFB186732F0D7A93545D8B0A6390AE5054D9CB582DA846D7A061B3358B45E2B52DDE63E114397EDB7E09233A579155D795BE76102CF277F4DF8B188C4F2879BEAE3C08347124BF9ED23B128259FE107D
310
31E34A652F090B30B39E0D9AF917B76A2806135621A8A60681F16AF216514BBD02711585B5B1AE823F4B2D0369EA5B6BCB863072727FFC871CA6C9AB79A814D989057E9470A3D238BC87CBB4A0EA49AFE2B86F22E499793CAA9047080450166BDC357524561E258C77CB697F1ABB32562CF87C3B7AA12F911EF19FB3E5C022
310
22E887D08202A60A17151F5E053A86B437771088B4FEE14D652C43E8D939995D34545E12E2FF93D4E366EAD25F10CB7DED141563C3D0C447AF06078A91135FD4B9611583CB4BF3BD167F2399CEAB0E0100F8FFC305F00F1711717173138B4B48C83022295DE657EFEDD97F238ECA80F528AFB4F8D67AD4E2594B9A3AA86D74
310
87EFC313BA95745C186F0CDD84CC12DC9CB0424B42203D351FD9C0A3AF10CC7F388E0329279087386421F194F4A29464C1DEF7EF8BE515E4A199DCD5B909342598D8FE6A231F71336248D5CEC5454455C7BE383B3BC7B260FED27F703FDC39A170F3827239102F59D4DEE7FEF82EAA1A5E4BA94DCC4CC44E7E2EDE20F24244
310
E4454369D2E87C3F823F193FD4FD27E1C23984B01898D15ABC20711A8A558054951A6AE280096BA36CBA439603B7B0B4C45F248C14B2383B4B5CD8ECECE4FF859AD4A6CA2326D020EF090F4041D28DB66E5256B56232CC52829DE8060BAE6BBF37D4B7469B822454FE93210A3E8D15E69FFCF01123222611C51C4FD0A041A0
310
CFA2471CF6BE38D2B20FA4C3525B5B8B586759475CF80ADFE67A284AC24651E52B8E683D24C2622642F27E7C3C22783BCF63648BC398BD6CD0D9C97E7E7E3EACB6126DB7A6C1FD9F1031302EE67ED96F22B77C7CA0239BB324207559B105E4693EB26EC46182A92C9C0DBD24F29B31C5C5AC1F84300E0E17CEEAC15F5736FA
310
4A98971E2F1423BFCD68D4BBD5F86E74B40A369F39507C88FCDB35D2DD8DEBEA4AF999E23CF2816D204200DF6E611781B9884C1AC8888B4DE397320472959434323A5A36B22A8E1F721A270DF3BD65E4A31C11FF048AFB0D8B7B6881423793963A23CFCE935FC189ED36FAE35C46DA3574C979E4394BE52084F3081837BE03
310
3396D2EBD80F1F691B273F660D2B32FA27A33B1DE4ADA5F0FA4651511102DFA410DDA86E065272CA314D5249DF91B06BB92807B28EFD54F08F7B525252782CD276DD02E6B0319B13DF87B1F6361AD6B28FC0D711CF445429B9E5A433CD493051C49A9E03DDB1B147D880253514A5DED88009018620EE229101C041950E2D8A
310
A8E1F5F5438E0C0C0C60EEDEE9E3E0C051948C69F84BB7B2A48A1F3C8EB9E6864687F4F4F6F6E2FA87608ADAF9C5E117B7C1A737E710769DA1D15ECE6A84502AA855398712D5FB51BE92E4EF824969CE18278798AC303C2C7980DD2500ADF8FB1E6D6C2FAAFF9987178923334A244758BAA01A9A1B70FA5097D01E1CC2A58D
310
AD0EC94CE6430AA9B0C10D75E3C6BAC670EFBADEE1607739CE0FC18A2587E3EC3058562014C64219C69BC269082D5C2F4A659278D585755912176D78A1B641719C2A394CED495A1AC5D583FD2F5EDD93308EA7EAE8A6DD396598BDBD3D4CFED62D18A5BDFDE0DD5C80D1A89BA62697B131AE7CE9A6594138582F1B37D68F17
310
49AC7CB67A70695D48A4A056AC1FBD4E82358CEAE38F54B95A9016F9000F9879C0D9D131768635CA798895F27D6F1614F11F2838A83611AA51C9A3DDB539D42979C29F10465655C17BEC3E2760B80DCBF609198C7B171A531905F3EC218D696025975E986C6B4C666666787271F202805577DD5A3EF0CAFAF91B62DC4B2DB4
310
217A7606282F31D8DDBC290593BAA93EA6353AFA9939B877978481E15CFC9F2755CDC00C538F63A4BA3E80AE009B73CA0185687D339A507D165B74290D6EE46D5C58148F020C3668ABE9EF2F7549170DC80DB41FFC1D678FF19AEB10C7133832B104B80F691B3138F97A92D26E551F1F110400D45AC71A9B9AC41A1A1B1DAE
310
ED0B0810638EFFB511D46B121C6FEA0F38CD00E03CFFEB9713FE1F9C263E4DDEC160D0497FA9A132BA608584057FB15380825DE6C7FC3C667EE947D488A09898D8E939C4953BF4EC9836344D2CC6B2971B2A21A572B06096F4982D2CC7232D46E8EA69DC83722E267754D777F97F96D5DA74E1E75178084D0E70F12AD33E5F
310
71EF2AFA599B2BEBF60A5BE475F444F240CBFE8143C334E7ED9150FEEFEF7EB020C4DBED388DD1D6A167A76F3CBF119B578AE8CFA7736ACAFA4440A1C47185638A0D2F3EB5BDDEFDA958FB13CE4AA4923D5BF840392D45544329525749734866684BF7F8D9D54D892E19BCA9F829A0F8BFCBEEA6CFDFC61D74EA1A645ED7A1
310
FF241739F15694BD835B66FEC5677E40FE69BD3F91AE402F036537218A401CB0828604AD189E575015C6F3F6BBC8AC79CF6C70653847254B31551EFCBEB5978B9DB85D58D0FA41A9DFE9C624834AA04949D24B5AE6D299E072D152D12097920F14AA92C31C3B97E28B6C2E6E9C23D63043ECBBC0A60FDF5BD0C33C127EA8A3
310
308B8B6AFFEB28B4455BF6E7AF4FC6222728357EB8E46E85053E6A8843AB23295BF838ABDA94658FEF3F832F147046B4ACD6F7D48E8FCC9618582961C898D1C7A253C91BFECBDA6BA18A1FCF70755DCCEE2222F41B76D23CA98D0CB3D95F0CF66D57FFF65E2A90F5DF40FC3187621E981BD0BC1D992787212688976B94A8F0
310
C6EF646624B570B78E068826F87CE27041A95C9A4871FF65CC17FCB1639629AD6A9517000D63AC231F3D741CB8430777E7ECF80CE7A3F73C0F162F7E56AA71F4DA80A33CD6ACEE78E2C11FAC03DAFCE929B106F8F6B3ED2DC71FF994BD9CEF4E9A94896EF1B6E2B7B4978168BCF0847A3D2A4F1B0500B926E634B174548E9F
310
BAD27153FB5FC36799B1E6C7C38A94E1F9E996796D7B485E635D5287A2AE76FBD11A341DB3F8F810385BB7296391973DC6C37C452A9305AEBBE0CDB6C566DB59FE60C8E94B1FD090354BF51439FFD1B48D725228FFA88C84F686F547107A7A235665A4593B7C34D748C1AC8D56DD5DA861EEFBADDECBBD65117E65851F9035
310
1AEB65F0EFCFF4BCFEF24CB7A5879699FAC437A7AF9099186CF006BB923A59E37D7A36A29FD8D2CBB914A5E9D0A8FD212FBF796AE9A67958FF1D5D8B85F78F96219D4714EB919929241B6C018AAE0C02069F8D919961EC5DDFBFB7573E3AC8E08BFB7C8534BE6DE045B3CD63DBD71F7638BA2309CAE398EA3A7D8F98BBBC7A
310
EB367EFA5CFA27A9F8F2F52FE878058E6209C026453F8E7E8A237DFC389E9590F6059B397CFD65183BBF936E86896612A5B5FEE49DAC8455D026218AFEBEC12B3523A45B57B82C9C97E02ACFA1184DB18E48CF615DBF39C3CC6F0B4AE6BBEEA2E39D944E290302FA3DE33FA7E40296E2EF7BF1CD855BBECFAD0FD622BEE974
310
6FC4FDFDE545AE6E3BC234CADF83A0FB76DFB145BF3828AE3436368AC24989454F8FF70A177672C711CAA1A76107218CF948CA01F873520E7A2B118EBB161ABAD432932029628B6761590C98AB590C8C8C79798CE9F715BA696E839E9131A4BB68BE923F1747FBFF165331FFDD4D05997ACD168F12CA75348DAC04C7F509FE
310
83898A8B421181AF492861CE81E4A2DD0A30850CFA95E05F097FF70F9E777310D584A75BA7018922E271DAB1D785671157685B7D383D3E074DDB4F1E44EF04B07BAAC75A062077C54B9752C738C9D804D402E02851F3F89605AF189738C18C021D2139EAF72513824E10DDD3047BACC8521ED7E98B257D1166903B1B08FA6F
310
918FD7E162913FEC7D0EF4787E29C35FBA8C6E2C9C20E9AB30AE42CA2A01A090E7D010C1B5BF9CEE2A304BF3A987FB40D836979B79E18D70F257DA61E808472DD85B82761825779D6B90CAEB0F23360C6F80A7D7D77545E95B3DFF0CF96A827F9B5BCECD2C9698718417EF80FEEDEE938AFF55859D0D540B7FE09435583A6F
310
04874A0C7E8CF234DF4879722000167F5872CEC6BF3EF7E5A8CC8121E6A359227C8A29C95212F9F735BC72A887D56B8F309FC525BFB4FD767AAEC4AEFF249CFBBD2DE1AB9969A6155C7D8DABC307E47324C1F916C7BCFF40ABA5644E9FFB9238D19ADADA49D9610F01ABBA57E4DFCBDCCBB2B93C8953206C91DE01B0E2651A
310
6D6C31721915B31F7B7CBCE55466F6D70402788FA91D73BE4ADCBA99A35F17D6B83383704917D6833F0FA3CD45C926ADB8BC17999A4A0AFBCE2541F7B8CF4C2F5FBA611B3E626D64407CB32C122DFF4EF8674D6EDBB86C8F7C6A16D50FA685E2CCA34F8F7D1D8265BB0042E9D7F1F666F7BE5FAA5184DF58E12122A42EF02F
310
461B3F369AC746F96528AD208512AB56844CF75B97F352DF7995024FB02855385854F3798670D01CAC771AC3E1889EC25F61A20C1F8CAB46898817F9C47E2CDA1F286BF2F358298709FE567C91133E2638C8B53975E753EA8BFD3578B5F7186B7BF084EBA3F77BAC3132A5779902EC22AF2D2E79F42D324E083386DAEE9810
310
D1B44A5DAA54513C7A71E52A4AB9257D975B621308FE4D2141CC3DCFE946C154A3C1DFCCA7629EC69ACFA831634ADDA93C0388D2A9A2DDAFCF957C6995BCE7FBB6DC4EBAE79E63EB08E9A25F52F67076F7093CA545CA3053B5BF576DEAD4E0017143C5F759F32B2D6F145B52B67B48909B7C7FCA6586EE385A2189C16932CB
310
6DDFD9152AE317C430492A578ED27B72D85D40C7C93C097939E1B50F4D67F05334FE9DC362C30B7FF561B95259138ECFD9274C8D695C31B14D4EAA9F3D7FA8DDF652F8C5DEFA23284C799B7D94416DEE81E05A866302DC70192A5368EA65E1CED8BF107A1E2D3119A71E85DC1A7B0C1E93274CE04DD0F2ABC8AC7C987FDB00
310
2B6F81757B43502EF7A0D92E416494FAEEA4C9C090CD9557AA4D532F4996A272B94355C5A0E4974EEA9627476F30809B94D8D8D860062E02204643BEC7D0438AF800FC7E2B26955D595421E83C69E1A07E0E3122285835F014AD538188CF9737CE76D464A353FA55A001AB2526B84E985083693BC76FE211CA1D000679C889
310
E3C009832C87E1AC2EDD05C302557422DF0800E316FCAC86978A371F025A6C7DAA9F333E7BD160403A1A06EA75AA9888FF01504B0304140006080800C970704C51464CB48900000043010000360000006662782F41433446313030302D394537412D413244442D303442422D3943353246444237453634462F646972656374
310
6F72792E786D6C9D8F310EC2300C45AF127987122606C71DD918B841D4B851A43646695A717C52A85029031293A5A76FBF6FACEF7DA7264E43906840EF0FA03836E242F406C6DCEE4EA06AC22492573150D1F66C60C640E8938CB705396EEDD86DE9B5042FE27813D640EA63BB001C722AF6E55CB61E4863F58284D5D3F53D
310
D715CE1C3985E63FD7F1B7EBDD617E9F1E504B0304140006080800C970704C9CC3FAD936070000691C0000340000006662782F41433446313030302D394537412D413244442D303442422D3943353246444237453634462F6F626A656374732E786D6CDD596D6FDB3610FE2B84F6D99225DB493C382EFC1217C696B668D661
310
DF045AA6142ED40B48292FFBF53B52A42C29B2AD642D502C011285A18E77CFDD3D773CCF3E3CC70C3D122E689A5C5BAE3DB4104982744F93E8DA2AF2707065A10F7334E3699AD7F65928C131B9B6E4B2359F453C2D32BDB427212E587B75B3FC0B898024C44201C3425C5B22B82731B67191A77B221EEC3DCEB11D85CFB66B
310
971B9B62238EB3FBD65119E624C94155584F408AD6C06DFE092639F399233734B679FDB68D4E6C7394E14D456922729C04AFB46AC9F1FA693572C7EB1B6F321D4CC6E3D1607CE1B983E566B91EB897A3E1EA62B59A2E6EA6169ACF7669CA2A076424D983175FACB93B73E47F2AF3350A5D7A0769929040A3D9B5614FB45C4A
310
441B9306B0AE32ADE690D2D6DAC2A8A7F147B6F502A5A152036D639CF95D8FDE74F7378020FA4429174446B9C839F85A635FE6C370E694AB0DBF5081629C134E31438CEE38E6E020D85A3AA82146668B14852466CA8B465E5D5708ECF3B9D4A565583026F3D79AAB4CF3211F492E9466F41FC20FDAD74F039DC0DA8226F995
310
36367FC940C474E6A8C5F27F234FFFB30412850C47102D60A6DC34F25A78AD24176CD7D6FCB7CDEEF94EF243F7E1194F33C27319792A9975DE190FD6420B82AF072825AE4DDF1D50F90AD07F02E42B5DD00C3CC7E9F3F8796C6CE7381161CA63F00E1AA2C1107E0C917C7CF53473AA97E70835B8F218A690B6DF09D386198D
310
B36B90CE678F10F4291F69E3EE02CC20A66F6922F31C0205B1149680EFC3DDB335DF0299C222BC8519580FDF33473E22F855CA01BE6979A88B7E7B38CA244C3BCF0EBEFA0831C36950B9AA61E3317C27DF05DFC5FAEEB7BB82873820B73AB1D724A409CDA198762BD400BD91F2DFB69F5446BEB2A7B12B8073A2541247875F
310
EEB45F90720CA822EB70E91AB5724B21DD19C309490BA1D7BB882A4859CAFDDD8B5FE670E7597F9A20280F83FC9611D0496650DD034E33098A35D7E6554C681F70923CA803302A9DEAEF70F020E1F50360ACF7E801518B795B6811673E8ED32291F4FD3ABCDBA6D9A3A1FA72DDA9379C7A57D3C944073CE8AE0E30F963C8A1
310
525F9E14E3ECC831AB86BF346F1820CB4C1A035F76D91040D754E47E9AE180E6DDD1D032A3A7CA7B1A8685005AEF04A6A5B13D72272536E6A7E7A1E11B562BA54E5BAB95F2698C23E28758D6C44EFD1A8056C28D933A918C582A044D88503DCD2BAE6BA138B4813ACA4837523BC2960A3F26397E4FC4AA22D90A584E42E643
310
F795CBFEF77CBC1A0575BD3D2651F67A69E22BFB5F7C81E38C957DDD390C5CAF754227AE526979C423C4A78F737FB827AA4D3F27BD6212836F2FE9D3778B3F020FC73F1C1E730485661DAAEA79CFBAF6C49DCAAF2BA0A18B893BBAB8AC5C710E2D73582EFB165640A715BCF84F8446F7FD48D0B8FCE43982B0D0A78C15B15F
310
D6909CC4D0B6E1BCE0BD32F602D8A47D906686564AD44E0A2983A6BA37CDAA7EC5742C70986A588ED16CED18308A2670AFEB65C82B2B3A8358F942DD61E555EDBCFFDF2EF53F3366FD6EF3405E9E52BEEFD4B4D97A98AECD34199230754DACDCAB24CF67F5F48BD565E73C0E632344335C79B3D011C2C92395C30C756BEABC
310
7388279C0740A577EAF7600919B127FB431FD210A74723D61C0E35D24C6F5BBF1D01DDC902D268D6B6925263985060C9B4B7F2817DC5E06AE81685A33B21A75CDFCAD266C330E6A0C709599F3FDEB5A4C04AEFB7BF488CC8534B825E5DC9E6EF84A86FDB438FDB92A02DFAB63DF17A7E5FC4BB0453591B6558E07DF6EB0775
310
FFBC76E072E12C56E38D0BDDC4607A73B9182CBCF57A301C2F9783E96AE26DD6CBCB9B8BF1C6E144A4050F88703C67E89B6E2B4B22131825747D6E213089387F5D34F1DC76F0FFF816C2D21D3E168B3FEB25A46AF8644BD6CAC5BE97904EA2DEBDEDC6E0BE22EAEE22F6A65EBB9C2F98003F5DB6808C4CBDEFDF5C18D1A6C2
310
77EB5CAB886F2CBC47EF373FBCC63408BDB33E347674517E938B615ED551A5CC8D58F15AC5639B0D50D8C25BAD07DE707933D84C56EE467D799B0A715D0BFBD6959F82438DB2B5D11B4C9045CA280CF2C91E4524853B104C2A7AF02B8F8950771B68007419379F22F478FBB19CC3E678C7CCDBC13D866136D315B90860900A
310
F78E6B4BAFA35F60742AA7976AA0653F40E1D1D16EA182D36B0B4220A7505FEC1D8CC0D4C051496F8D38C16D3889E4ADA97CABFAFBF09A440762E56057B5A70F2EDAB24674C23821539F2D00DB9986E4FDA61B7510CEE17157E49531878583351A04F32142691C4C0A1F34BCCF403CA7ED726DB5A70149AF69FEC93828A50E
310
72CC233592AFE1BD587F71E4347DFB1965AC88A43B4FD5FB86A481EC3358510EAE661018DACC0CCB9BB8B3C83246A116426F279C85FE184B3DAC166BF4FB1FC81BBA97EDBF6D709FB34A931CBA41E17CAD1A193340148E6A86F4E703300013C4C67BF1000BE06F4EE590B5C4BD11151567D5A2C2B8493A085E6BECDFAE91AE
310
0CB5BEB6DECF4ACCD4870308B24B7E282473A9BEA136C9840401ADCA816FF56016660E8769FAFC5F504B0304140006080800C970704C5045FC21E2000000550100003C0000006662782F41433446313030302D394537412D413244442D303442422D3943353246444237453634462F7265736F75726365732F322F636E782E
310
786D6C4D90DD6A032110855F45845EAE3F69096970CD4BE4AA37C1BA93AD449DC59FD2BC7D34B5D0AB19CEF918CE1C75FA099E7C43CA0EE34C25139440B4B8B8B8CEB496EB74A0E4A455422CFF304AA20930D32E53ADD684751BD20257537D57BD8BB7218ACB0A1192B3972DAE94586F729E69B65F100C33B5E002F9C61653
310
0C932C41C69A2CB413C50518276C025360A17A27E46112AF93DC9FE5DB51EC8FF2FD43F14E6AF589E807EF628184DBCB4E586C6B6C8984E21DD0AA2637A8FE4633FEE2B1164FF1666B954B6A1D0CACDCB786B96056E04FE4D7D58AF727DB7836D0662F443F00504B0304140006080800C970704CFF15A4A45D000000800000
310
003A0000006662782F41433446313030302D394537412D413244442D303442422D3943353246444237453634462F7265736F75726365732F636E782E786D6C4D8B3B0E80201005AF42B6F75B59F0390B113044D83508C6E30BC6C26AF226F3B8BA6360974DA7271430F523308B2B198F9B80925DB700539227A2FCCB80A18E
310
5640D320F996A81C9F32D6E9129A0D1EF74FCE750E6D57BC7165FBCA07504B0304140006080800C970704C209375844301000056050000300000006662782F41433446313030302D394537412D413244442D303442422D3943353246444237453634462F636E782E786D6CCD94C14E032110865F6543E27161B79AA6362C4D
310
3CF8041E8C37969DAE581636306BECDB0B95B61AD3E8A1497B23C347F2FF333FC3571F8329DEC107ED6C436A5A9102AC729DB67D43265C970B52AC04F7CEE1378C14560ED090542682F7DE4D632E75B096934955A3ED261725A2D7ED841048A18C0CA12141BDC220A99CD0751036B49328694D3D04377905F13DEA01F27BE5
310
41227444CCAA7A5156B7653D7FAAEF96D57C59DFBF709648C15BE74CE6B545F06EBC9955CAC5A38D722ACE1220F8E475A69207228EDA68AB2D67F15EF010F5DA3E73B81D13378E462B89B151CC29042C230472E0EC0B169C25C73F7C3F3E3C1F35C453A73D28747E7BB136D4A7DA7090466322FED7851DF89779D7BE45CB97
310
9BFB49C359D8D9ECEE931B62747F2721E649DADE5CE30738483B7FFEE36241ADAED1F45ED9993CB3DD0A8C834F1B517C02504B0304140006080800C970704C59136EB07F000000A30000000B0000006662782F636E782E786D6C4D8CD10E822018465F85FDF7143ACADC100722EFE1121D0BA191B41E3F685E74F56D67DF39
310
ACFF6C0EBD4D7CD9E03BA84E0490F1F7305BBF7690F605DF00F59CC510F6BF1B203F6DA6838281B33586F43CD06C9629B9429DF58F038A81EA8A1082DBB11158D44A6142A5C4ED70A9B592CD78A53A1BE7A2E4F9F5F2963CFF02504B0304140006080800C970704CA6D797065F0000008200000007000000636E782E786D6C
310
4DCB3B0E80201045D1AD90E9FD7516806B51190811670C8A61F982B1B0BAC9C97B72CA7B1037C6D3332918DA1E04D2CAC69353902EDB8C20262D23F3F59B81A079470595414B17391D1F19B4730A5583A7ED43BBE4025D9592775E5ADFFA01504B0304140006080800C970704CF16BC273AA00000026010000130000005B43
310
6F6E74656E745F54797065735D2E786D6C7D8FC10EC22010447F85706FA91E8C31A53DA87FE00F206E29B12C04B6A6FEBD606FA6F1B833F366B26DBFB889BD2026EB51F25DDD7006A8FDC3A2917CA6A13A72D677EDED1D20B19CC524F948144E42243D8253A9F601303B838F4E513EA31141E9A73220F64D7310DA23015245
310
A58377ED0506354FC4AE4B96D7DD8086B3F39A2B53925B57F8A28B4D220FFE102A84C96A45F91151DC6DEE6EF10FE7350155892228570AC4F7EFEE03504B0304140006080800C970704C3DEE336E64000000790000001B0000006175746F6465736B2D64657369676E2D7061636B6167652E786D6C35CBC10E83200C00D05F
310
21DCA56CA76D41FC96062B120735B69A7DBE268BB7777961F8D5AF396893C2ADB70FE7ADA196782C2DF776D7A97B5933C430F15651E5469C55D70F80A4992A3ADC954792C525AE70A1E4D6AD9816CC044FEFDF01FE3FDE907802504B0304140006080800C970704C7BF7CF77F40000008E0100003D0000006662782F414334
310
46313030302D394537412D413244442D303442422D3943353246444237453634462F7265736F75726365732F322F636F72652E786D6C8550CB6E833010FC15B477834D520A9171445BF8829E7AB36C87580936F2A3EAE7D70E546A4F3DED6A76667677E8F96BB9179FCA796D4D0FA4C4502823ACD466EE21860B6AA13833EA
310
AC0DBF685018BEA81E320C8CCECEC67587843541998C1A2BD50E72EF558042DC53D3831757B5F092C79018FE56AE5CDCF8AC4A526E3C4663D472976A99DCF4452B076C783D4E04638C1AD23668A8DF06D4B55D8DEAE1B999C6697C199F265A6531A3412F3FDB85533C2809ACC6A445F88048F34E8E27DC9C48F741ABCC64D4
310
07977EDE97E6EF129D561BFAC72DAEF27FB7A84D38D4BBDBA6F0C0483AEE3160B4CAE9A4F2882ED59C24FB06504B0304140006080800C970704C5C6E8B17F9000000960100003B0000006662782F41433446313030302D394537412D413244442D303442422D3943353246444237453634462F7265736F75726365732F636F
310
72652E786D6C8550CB6E833010FC15B477834D524A22E388B6F0053DF566990DB1126CE447D5CFAF9D50A93DF5B4ABD999D9DDE1A7AFE5567CA2F3DA9A0E5849A140A3ECA4CDDC410C67D2427112DC591B7ED1A03072C10E320C82CFCEC675839435014D468D9D7003A5F718A050B7D474E0D5051759CA1812C35FCB55AAAB
310
9CB164E58327788C7ADAA47A4A6EFAACD181E85FF723A3949286B50DE9EBB79E1CDA434DEAFEB919877178199E465E65B1E0412F3FDB95431970025153D612BA23AC7967FB236D8EECF0C1ABCC14DC07977EDE96E6EF4038F4363A859E578FE91FD7B84EFFBB466DC2AEDE5C1F0A0F82A523EF03C1AB9C522AF70853CD898A
310
6F504B0304140006080800C970704C22CE6F7EF3000000B1010000310000006662782F41433446313030302D394537412D413244442D303442422D3943353246444237453634462F636F72652E786D6C8D50CB6E833010FC15B477834D2879C8388210BEA0A7DE2CE3502BC1467E54FDFCDA814AED2DA7B566673CB343CFDF
310
F323FB92D629A31B2039864C6A6146A5A70682BFA103646746AD31FE0F0D32CD67D9408281D1C99AB06C9030DA4B9D506D46B981DC39E921138FF868C0894F39F39C071F19EE9E2F5CDCF9247392AF3C46BD9A7FA5C24AEEE508ACC4E480F00E91FA9D54275C9FC8F1831689C968086ADCACD418DDD54D490BACBD5403C118
310
A3E375DFA2B6EC7B84ABAE43C7CB5B39F4DDFE5A57032D929851E76DBC79FB245DF7AA7C15FECB1C96F185CC4AFB5DB919AE0A078CC43CCF05A3452A308E67BB71A6B2D90F504B0304140006080800C970704CFF73975654010000DD0200000C0000006662782F636F72652E786D6C8D525D6F832014FD2B8677146CE7DA06
310
69DC567FC19EF646913A52058360FAF3077EC4F9B08F982039F7DE73EE39819C1F6D130DC2F452AB1CE018814828AE2BA9EA1C387B8307109D29315ADB6F6D2052AC15390830A0A436DA7533C4B5B2420554E94ACC20EB7B6141C41B7FC941CF3F45CB62E6ACEFE8EF71C7F89DD522C6F1D4478973B29A4765E5D9E44D0A03
310
68F1BA2F31420866F890C1227D2BE0F1704C615A3C67E5A5BCBC5C9E4A9284614AAC6C17756E04B3A2023445F800D10EE2EC1DEF4F283BE1E30749422725BD35DEF32C1ADC017ABB3E4832E11B3ED7557FF339A9EC2E9DF9A6891E50ECD71B0B9424211FFF1BC3DB66E8857D7E965D9BC5C2DD4383E0569BBDAF54DAADA581
310
354E786A148D1F49A6AA671E097EE2497FE1F99DC307C554ED5763D65FAFCE06F5ED4E9D3070B08F4869D3B2665D6E5A713D57A18DA5659CEB469BFF4C2F56973093F030E917504B0304140006080800C970704CC763B09F07010000B201000008000000636F72652E786D6C8D50C16E842014FC15F2EE28B85BAB1B64635B
310
FD829E7AA3C25AB20A0670D3FE7D61B5497BEBE99199796F8661E7CF794237E5BCB6A6019A1140CA0C566A3336B0860BAE009D3973D6865F324046CCAA81040367A3B3EBB24383354199841A2BD50E0AEF5500344CF1D1801F3ED42C32B186A8F0D76C11C3558C2AA3D9A6E32CE8F96775704A042581178456981C302D5FE9
310
F144CA13ADDF589E949CADAB96BB9596D15D5FB472C0DBE7634F0921B8A45589DBE2A5C5755517B8681FCBBEEBBBA7EEA167795AE6CC0717FFBC1F893903F2E2967C59BE519CBD5B3BED82184A226BA62FE084E589F8137A5DE43F426B130EC57E70DBF0C0690C7427A2716A308E7BBD71A6B6F937504B0102140014000608
310
0800C970704C0000000000000000000000003700000000000000000000000000000000006662782F41433446313030302D394537412D413244442D303442422D3943353246444237453634462F617474726962757465732E62696E504B01021400140006080800C970704C0000000000000000000000003500000000000000
310
000000000000550000006662782F41433446313030302D394537412D413244442D303442422D3943353246444237453634462F76657274696365732E62696E504B01021400140006080800C970704CF270F13306000000040000003600000000000000000000000000A80000006662782F41433446313030302D394537412D
310
413244442D303442422D3943353246444237453634462F747269616E676C65732E62696E504B01021400140006080800C970704C88E57597CD3F0000904100004200000000000000000000000000020100006662782F41433446313030302D394537412D413244442D303442422D3943353246444237453634462F7265736F
310
75726365732F322F305F67656E657269632E706E67504B01021400140006080800C970704C51464CB4890000004301000036000000000000000000000000002F4100006662782F41433446313030302D394537412D413244442D303442422D3943353246444237453634462F6469726563746F72792E786D6C504B01021400
310
140006080800C970704C9CC3FAD936070000691C000034000000000000000000000000000C4200006662782F41433446313030302D394537412D413244442D303442422D3943353246444237453634462F6F626A656374732E786D6C504B01021400140006080800C970704C5045FC21E2000000550100003C000000000000
310
00000000000000944900006662782F41433446313030302D394537412D413244442D303442422D3943353246444237453634462F7265736F75726365732F322F636E782E786D6C504B01021400140006080800C970704CFF15A4A45D000000800000003A00000000000000000000000000D04A00006662782F414334463130
310
30302D394537412D413244442D303442422D3943353246444237453634462F7265736F75726365732F636E782E786D6C504B01021400140006080800C970704C2093758443010000560500003000000000000000000000000000854B00006662782F41433446313030302D394537412D413244442D303442422D3943353246
310
444237453634462F636E782E786D6C504B01021400140006080800C970704C59136EB07F000000A30000000B00000000000000000000000000164D00006662782F636E782E786D6C504B01021400140006080800C970704CA6D797065F000000820000000700000000000000000000000000BE4D0000636E782E786D6C504B
310
01021400140006080800C970704CF16BC273AA000000260100001300000000000000000000000000424E00005B436F6E74656E745F54797065735D2E786D6C504B01021400140006080800C970704C3DEE336E64000000790000001B000000000000000000000000001D4F00006175746F6465736B2D64657369676E2D7061
310
636B6167652E786D6C504B01021400140006080800C970704C7BF7CF77F40000008E0100003D00000000000000000000000000BA4F00006662782F41433446313030302D394537412D413244442D303442422D3943353246444237453634462F7265736F75726365732F322F636F72652E786D6C504B010214001400060808
310
00C970704C5C6E8B17F9000000960100003B00000000000000000000000000095100006662782F41433446313030302D394537412D413244442D303442422D3943353246444237453634462F7265736F75726365732F636F72652E786D6C504B01021400140006080800C970704C22CE6F7EF3000000B10100003100000000
310
0000000000000000005B5200006662782F41433446313030302D394537412D413244442D303442422D3943353246444237453634462F636F72652E786D6C504B01021400140006080800C970704CFF73975654010000DD0200000C000000000000000000000000009D5300006662782F636F72652E786D6C504B0102140014
310
0006080800C970704CC763B09F07010000B201000008000000000000000000000000001B550000636F72652E786D6C504B050600000000120012002D060000485600000000
  0
XRECORD
  5
12
102
{ACAD_REACTORS
330
E
102
}
330
E
100
AcDbXrecord
280
     1
270
     1
271
     1
  0
XRECORD
  5
13
102
{ACAD_REACTORS
330
E
102
}
330
E
100
AcDbXrecord
280
     1
270
     1
271
     1
  0
XRECORD
  5
14
102
{ACAD_REACTORS
330
E
102
}
330
E
100
AcDbXrecord
280
     1
270
     1
271
     1
  0
XRECORD
  5
15
102
{ACAD_REACTORS
330
E
102
}
330
E
100
AcDbXrecord
280
     1
270
     1
271
     1
  0
CELLSTYLEMAP
  5
2BE
102
{ACAD_REACTORS
330
2BD
102
}
330
2BD
100
AcDbCellStyleMap
 90
        3
300
CELLSTYLE
  1
TABLEFORMAT_BEGIN
 90
        5
170
     1
 91
        0
 92
    32768
 62
   257
 93
        1
300
CONTENTFORMAT
  1
CONTENTFORMAT_BEGIN
 90
        0
 91
        0
 92
        4
 93
        0
300

 40
0.0
140
1.0
 94
        5
 62
     0
340
29
144
0.25
309
CONTENTFORMAT_END
171
     0
 94
        6
 95
        1
302
GRIDFORMAT
  1
GRIDFORMAT_BEGIN
 90
        0
 91
        1
 62
     0
 92
       -2
340
0
 93
        0
 40
0.045
309
GRIDFORMAT_END
 95
        2
302
GRIDFORMAT
  1
GRIDFORMAT_BEGIN
 90
        0
 91
        1
 62
     0
 92
       -2
340
0
 93
        0
 40
0.045
309
GRIDFORMAT_END
 95
        4
302
GRIDFORMAT
  1
GRIDFORMAT_BEGIN
 90
        0
 91
        1
 62
     0
 92
       -2
340
0
 93
        0
 40
0.045
309
GRIDFORMAT_END
 95
        8
302
GRIDFORMAT
  1
GRIDFORMAT_BEGIN
 90
        0
 91
        1
 62
     0
 92
       -2
340
0
 93
        0
 40
0.045
309
GRIDFORMAT_END
 95
       16
302
GRIDFORMAT
  1
GRIDFORMAT_BEGIN
 90
        0
 91
        1
 62
     0
 92
       -2
340
0
 93
        0
 40
0.045
309
GRIDFORMAT_END
 95
       32
302
GRIDFORMAT
  1
GRIDFORMAT_BEGIN
 90
        0
 91
        1
 62
     0
 92
       -2
340
0
 93
        0
 40
0.045
309
GRIDFORMAT_END
309
TABLEFORMAT_END
  1
CELLSTYLE_BEGIN
 90
        1
 91
        1
300
_TITLE
309
CELLSTYLE_END
300
CELLSTYLE
  1
TABLEFORMAT_BEGIN
 90
        5
170
     1
 91
        0
 92
        0
 62
   257
 93
        1
300
CONTENTFORMAT
  1
CONTENTFORMAT_BEGIN
 90
        0
 91
        0
 92
        4
 93
        0
300

 40
0.0
140
1.0
 94
        5
 62
     0
340
29
144
0.18
309
CONTENTFORMAT_END
171
     0
 94
        6
 95
        1
302
GRIDFORMAT
  1
GRIDFORMAT_BEGIN
 90
        0
 91
        1
 62
     0
 92
       -2
340
0
 93
        0
 40
0.045
309
GRIDFORMAT_END
 95
        2
302
GRIDFORMAT
  1
GRIDFORMAT_BEGIN
 90
        0
 91
        1
 62
     0
 92
       -2
340
0
 93
        0
 40
0.045
309
GRIDFORMAT_END
 95
        4
302
GRIDFORMAT
  1
GRIDFORMAT_BEGIN
 90
        0
 91
        1
 62
     0
 92
       -2
340
0
 93
        0
 40
0.045
309
GRIDFORMAT_END
 95
        8
302
GRIDFORMAT
  1
GRIDFORMAT_BEGIN
 90
        0
 91
        1
 62
     0
 92
       -2
340
0
 93
        0
 40
0.045
309
GRIDFORMAT_END
 95
       16
302
GRIDFORMAT
  1
GRIDFORMAT_BEGIN
 90
        0
 91
        1
 62
     0
 92
       -2
340
0
 93
        0
 40
0.045
309
GRIDFORMAT_END
 95
       32
302
GRIDFORMAT
  1
GRIDFORMAT_BEGIN
 90
        0
 91
        1
 62
     0
 92
       -2
340
0
 93
        0
 40
0.045
309
GRIDFORMAT_END
309
TABLEFORMAT_END
  1
CELLSTYLE_BEGIN
 90
        2
 91
        1
300
_HEADER
309
CELLSTYLE_END
300
CELLSTYLE
  1
TABLEFORMAT_BEGIN
 90
        5
170
     1
 91
        0
 92
        0
 62
   257
 93
        1
300
CONTENTFORMAT
  1
CONTENTFORMAT_BEGIN
 90
        0
 91
        0
 92
        4
 93
        0
300

 40
0.0
140
1.0
 94
        2
 62
     0
340
29
144
0.18
309
CONTENTFORMAT_END
171
     0
 94
        6
 95
        1
302
GRIDFORMAT
  1
GRIDFORMAT_BEGIN
 90
        0
 91
        1
 62
     0
 92
       -2
340
0
 93
        0
 40
0.045
309
GRIDFORMAT_END
 95
        2
302
GRIDFORMAT
  1
GRIDFORMAT_BEGIN
 90
        0
 91
        1
 62
     0
 92
       -2
340
0
 93
        0
 40
0.045
309
GRIDFORMAT_END
 95
        4
302
GRIDFORMAT
  1
GRIDFORMAT_BEGIN
 90
        0
 91
        1
 62
     0
 92
       -2
340
0
 93
        0
 40
0.045
309
GRIDFORMAT_END
 95
        8
302
GRIDFORMAT
  1
GRIDFORMAT_BEGIN
 90
        0
 91
        1
 62
     0
 92
       -2
340
0
 93
        0
 40
0.045
309
GRIDFORMAT_END
 95
       16
302
GRIDFORMAT
  1
GRIDFORMAT_BEGIN
 90
        0
 91
        1
 62
     0
 92
       -2
340
0
 93
        0
 40
0.045
309
GRIDFORMAT_END
 95
       32
302
GRIDFORMAT
  1
GRIDFORMAT_BEGIN
 90
        0
 91
        1
 62
     0
 92
       -2
340
0
 93
        0
 40
0.045
309
GRIDFORMAT_END
309
TABLEFORMAT_END
  1
CELLSTYLE_BEGIN
 90
        3
 91
        2
300
_DATA
309
CELLSTYLE_END
  0
ENDSEC
  0
SECTION
  2
ACDSDATA
 70
     2
 71
     8
  0
ACDSSCHEMA
 90
        0
  1
AcDb_Thumbnail_Schema
  2
AcDbDs::ID
280
    10
 91
        8
  2
Thumbnail_Data
280
    15
 91
        0
101
ACDSRECORD
 95
        0
 90
        1
  2
AcDbDs::TreatedAsObjectData
280
     1
291
     1
101
ACDSRECORD
 95
        0
 90
        2
  2
AcDbDs::Legacy
280
     1
291
     1
101
ACDSRECORD
  1
AcDbDs::ID
 90
        3
  2
AcDs:Indexable
280
     1
291
     1
101
ACDSRECORD
  1
AcDbDs::ID
 90
        4
  2
AcDbDs::HandleAttribute
280
     7
282
     1
  0
ACDSSCHEMA
 90
        1
  1
AcDbDs::TreatedAsObjectDataSchema
  2
AcDbDs::TreatedAsObjectData
280
     1
 91
        0
  0
ACDSSCHEMA
 90
        2
  1
AcDbDs::LegacySchema
  2
AcDbDs::Legacy
280
     1
 91
        0
  0
ACDSSCHEMA
 90
        3
  1
AcDbDs::IndexedPropertySchema
  2
AcDs:Indexable
280
     1
 91
        0
  0
ACDSSCHEMA
 90
        4
  1
AcDbDs::HandleAttributeSchema
  2
AcDbDs::HandleAttribute
280
     7
 91
        1
284
     1
  0
ACDSRECORD
 90
        0
  2
AcDbDs::ID
280
    10
320
18
  2
Thumbnail_Data
280
    15
 94
     3029
310
89504E470D0A1A0A0000000D49484452000001000000009A0803000000712666C500000300504C5445FFFFFFFFFFFFFFFFFF0000000000000000000000000000000000000000000000000000330000660000990000CC0000FF0033000033330033660033990033CC0033FF0066000066330066660066990066CC0066FF0099
310
000099330099660099990099CC0099FF00CC0000CC3300CC6600CC9900CCCC00CCFF00FF0000FF3300FF6600FF9900FFCC00FFFF3300003300333300663300993300CC3300FF3333003333333333663333993333CC3333FF3366003366333366663366993366CC3366FF3399003399333399663399993399CC3399FF33CC00
310
33CC3333CC6633CC9933CCCC33CCFF33FF0033FF3333FF6633FF9933FFCC33FFFF6600006600336600666600996600CC6600FF6633006633336633666633996633CC6633FF6666006666336666666666996666CC6666FF6699006699336699666699996699CC6699FF66CC0066CC3366CC6666CC9966CCCC66CCFF66FF0066
310
FF3366FF6666FF9966FFCC66FFFF9900009900339900669900999900CC9900FF9933009933339933669933999933CC9933FF9966009966339966669966999966CC9966FF9999009999339999669999999999CC9999FF99CC0099CC3399CC6699CC9999CCCC99CCFF99FF0099FF3399FF6699FF9999FFCC99FFFFCC0000CC00
310
33CC0066CC0099CC00CCCC00FFCC3300CC3333CC3366CC3399CC33CCCC33FFCC6600CC6633CC6666CC6699CC66CCCC66FFCC9900CC9933CC9966CC9999CC99CCCC99FFCCCC00CCCC33CCCC66CCCC99CCCCCCCCCCFFCCFF00CCFF33CCFF66CCFF99CCFFCCCCFFFFFF0000FF0033FF0066FF0099FF00CCFF00FFFF3300FF3333
310
FF3366FF3399FF33CCFF33FFFF6600FF6633FF6666FF6699FF66CCFF66FFFF9900FF9933FF9966FF9999FF99CCFF99FFFFCC00FFCC33FFCC66FFCC99FFCCCCFFCCFFFFFF00FFFF33FFFF66FFFF99FFFFCCFFFFFF0000000D0D0D1A1A1A2828283535354343435050505D5D5D6B6B6B787878868686939393A1A1A1AEAEAEBB
310
BBBBC9C9C9D6D6D6E4E4E4F1F1F1FFFFFF000000000000000000000000000000000000000000000000000000000000AD4AB4E4000001184944415478DAEDDA4D8AC2401485D15A43F63FE98DBCC5145948C7FA098288831E3478CF190489A37CD68B46AA35000000000000000000000000000000000000008017C7275F1FE0
310
8FEF7F6B80AAF8001515A0DE2E818C00556F97406C80D62FC123D07B8D634C80697DEA8F4BBFCE3D5EF698007BD5AF027D8D40548075D17D8EC40C504923D0B7B1FC0303D47DFD63FEC70454D43DA0DDB7801AF3701D2AEB6BF02940DA08BC06583F086303CCBB426E805B6880B43F444A80F0006304AE0A0208208000B901
310
AE02E309283840F20AA8F800B59F7E3203EC87DF161C602E80F4005556C03899B841E279051C3FC3719E67E6FE0001F610B4D03D42F19BA404D80D5247A08C405080F89DA2E90100000000000000F877BF53ACFFEDB62F54000000000049454E44AE42608240AC300F1B03786A1F306E1640D3E2DDAD308C13ACB6C2A4C70A
310
736985634022800F59E1B95BC06AFD722B5CB68060899BA42892163F58615F5A617FC70A836871B3C26685CD0A535EDDCB88013000D5AFADDC0AAFCB897DA339398065AA7E5644DA5A805F97901000F8E080FF88B4BE369915362BACD9094E0DE013704D8B4FADC539D5C2BAB538774E96C6F1018396C23046686FA8A6C52F
310
93A5855AE1CD79F74F96C699AA1AB4F8FD545912902CDD688561CE062D59DAACB0762B3C1200436D8747A4CA6E33AC1A005F5BC90010CF9C57D01540A8FA1900CF4AB4F80680E84520668B43B4803EB9C26BD5BF32009EB401C8BAC0FCD3605F2D9E8C003AB5F86116805808E54F03B4B8F63B4496D9E3D972A86A2DE0A363
310
407987C888A331A5C9D2685AFCC401BF698561945809C092A58F56587BB234DD499686B1C2F49B15E6F7AED0703800A80440A70004274BFB5C7F6CF52D22F79418C45E20FF88BB4B02BF69528100720176E5898501C81F2C57B82B007E7DE9BE4283273E56EF9E2C9D38A17830D2387DFE13802EC9D2D9C9401C4E2100F449
310
963E0330790BE8ED03929381E3843A63FDAFFD4FDB9A7EFBE3470058D3600F27580C82D303E85ECE00A8B7C20F905C61B3C2A33E32A3D60A2BBF43042A53F4E40A0D526E85B9B4C29293A5CFAFD028A568EB151A58006AB4380B07402500E2DC0A878DAD500063AC302E005206207FE8E7040D8001400230E00A0D3000FDAF
310
D0C00230E00A0D2C00036E9686A87FC567C531F6F55D6681CE4ED08A15EB020083E0C02B3400A781DA88C82ED05D8BC300B0FF37D8902CED2D595AB315362D2E1B00754F960602605A7C48B234DE5EC0ACB00120D3E26AB5B852296A00B4FB80A1374BE3CD02A6C5ADE82B2EBD4143B516B7B341F57B81C408C588122DBEF5
310
7FF6C9FD01EB97CFB47808C8BD59FA22595A9B168F112A918895A2FE6F2B4C5856F81BEB54A0E21A6073550000000049454E44AE426082B5ABC7B6DFFC7DE658E13AA510BA6DF0773E66821F676E8B1B794A21C4F7ABCDF7DD0EF9FAD11E404121F45CBE7DEC7CFDDE039F2F23686B01E584D073733BEED402DC83D5068167
310
0CE0D3F6DFCF3F789CB9DEC03D01B8EC010BE900A72FA894608EA30900385281CE02D86405B71D01EB2A41D75460998AD0F72229B510CA79B459246514420302C82B8446B480AC42684C001985D00C004C426870007621342E804C42685400D984D09000B610DA42680BA1298490E12933E30B21E32337671042A6678D4D20
310
846C4F9B9B4108D92C600B21FAB68121D32067F8B33979A3AFF9007CDE13C5D042886DFB078C2D84D400FCFB07F04000F209A18F64B04A41845C7970A58A9073FF005E06806BFF00809600C082105AC3020421B486050842682517700AA14500CC21846C009C3A082B027856C8D703F04805B41E80E7AAE1F55CE063D570E3
310
20F80FC1E3899275EC1D810000000049454E44AE4260826304D29B7A8C7093150F8F1106C0EA3142017C9EC7880EC091C7080360F61801578F91DE14436FB2529AFC7393152F8F91B6B97600D0C764055D4D56F025262BB9734F3A4C1C9AAC40E78A623059D9D273F31819D8A2983D46A8C94A71DA52788C4067B2B23E053B
310
3F62EE0A9799BD47D067CC593D46F2EE90CE64857A8CEC7DC96AB2022463307A8C3429C3C063243F600C679AE030B96B4C561C2C36C80DEF768B0D965C788C0400EC9AD7B500F80B1B80D1CB373459A1CA368F91F660C8C163049A6B79E0251E23EF65B282D79AAC6CE5EF66B2D2DB82584C56F8675F64B2223F8D713C0494
310
F3B31C0080DF2355E3F1FA1F6AB2121E23C76AFF016073021C4956720A0000000049454E44AE4260825622B8D36405AE262B590D399D90BC4C56D2F5262BABA59393C9CA92052E262BAFF194FC3D46DC4C56A851036B02368B8DEC31B216ED528F1193C94AE53152DCE66C2E336BDDE4BF993D4638E4CA6364FBD85827C8D4
310
84C7485E1650BDB8FA811A15BF41379315078B8D7D35A3C98ACA62E37FDF796B426C61EB3C0000000049454E44AE42608217A0E126A375A0A87C12643B4A9E1C00D55F9FFF07CD1AA968B756C6AD0000000049454E44AE426082B46D2DAA4723E4AE793242E1C16E6F3242C4F71932547E34D93042370378A5115AAD7C3B39
310
8DA7072374E9AAB16184B86F7BE2B3C6CEA27BF7C6CAC4578DF9D9302C46A869D5581848287FD618316903149E16CF52649A164D09005109F19DA5EF5F35B606001C00360240B98D0E8A6D7450C7CED2086CD114C47D8017002D8BA65CCE199B11AD00B06D859E0C0004006400A0F4ACBA9F36012644907F0A949F2DBE0780
310
BBEB83120BE70FFC0E88E18301B083E3B2CD3AAB844703F0A31C9E86CA00C0FD294301C032619B012C46C801684990F80400EA0090304262D598D7E22D3942EC926F00400D00808411923B4B035F52766824389D23DF46670959F4825563CF7CD6D813005C4BB7835563371A2125ABC68611FA8D11A261848611D2FCF4F982
310
11C2618486111A46E8F14608A50FA0D38D9010222884880A23846F37429702E8D008D1DB8C10923042288C103EDF08C97D8460FDACB1618486111A46E8C946E867F797DA8D9547B9F206C0B4684C6F8E908A8F98733AC1FFC0FB742051D1E77E0000000049454E44AE426082
  0
ACDSRECORD
 90
        0
  2
AcDbDs::ID
280
    10
320
21
  2
Thumbnail_Data
280
    15
 94
     1845
310
89504E470D0A1A0A0000000D4948445200000100000000B5080300000087DCD12600000300504C5445FFFFFF0000000000000000000000000000000000000000000000000000000000000000330000660000990000CC0000FF0033000033330033660033990033CC0033FF0066000066330066660066990066CC0066FF0099
310
000099330099660099990099CC0099FF00CC0000CC3300CC6600CC9900CCCC00CCFF00FF0000FF3300FF6600FF9900FFCC00FFFF3300003300333300663300993300CC3300FF3333003333333333663333993333CC3333FF3366003366333366663366993366CC3366FF3399003399333399663399993399CC3399FF33CC00
310
33CC3333CC6633CC9933CCCC33CCFF33FF0033FF3333FF6633FF9933FFCC33FFFF6600006600336600666600996600CC6600FF6633006633336633666633996633CC6633FF6666006666336666666666996666CC6666FF6699006699336699666699996699CC6699FF66CC0066CC3366CC6666CC9966CCCC66CCFF66FF0066
310
FF3366FF6666FF9966FFCC66FFFF9900009900339900669900999900CC9900FF9933009933339933669933999933CC9933FF9966009966339966669966999966CC9966FF9999009999339999669999999999CC9999FF99CC0099CC3399CC6699CC9999CCCC99CCFF99FF0099FF3399FF6699FF9999FFCC99FFFFCC0000CC00
310
33CC0066CC0099CC00CCCC00FFCC3300CC3333CC3366CC3399CC33CCCC33FFCC6600CC6633CC6666CC6699CC66CCCC66FFCC9900CC9933CC9966CC9999CC99CCCC99FFCCCC00CCCC33CCCC66CCCC99CCCCCCCCCCFFCCFF00CCFF33CCFF66CCFF99CCFFCCCCFFFFFF0000FF0033FF0066FF0099FF00CCFF00FFFF3300FF3333
310
FF3366FF3399FF33CCFF33FFFF6600FF6633FF6666FF6699FF66CCFF66FFFF9900FF9933FF9966FF9999FF99CCFF99FFFFCC00FFCC33FFCC66FFCC99FFCCCCFFCCFFFFFF00FFFF33FFFF66FFFF99FFFFCCFFFFFF0000000D0D0D1A1A1A2828283535354343435050505D5D5D6B6B6B787878868686939393A1A1A1AEAEAEBB
310
BBBBC9C9C9D6D6D6E4E4E4F1F1F1FFFFFF00000000000000000000000000000000000000000000000000000000000056B0F76B000003F04944415478DAED9D4B72E3300C447906DC7FE38BE030282D738888D4C7FA51CE4C6C02613753745C5265A18EF41A24402A7D81B74401BE1270A300146016C0CCCA07D4E74E003E02
310
70CD2800F823400108410A400852004290021082148010A40084605D00EBA0FD4E80F7AAAE533B1EB83AF3DEFFF47FBBC07B0590F1124564EAAB00EB17D1E5707B0152330152B9525D04B05980F190C9476E819F3D025E02C8460011FDC00D902231A05CE1D887DCE73B400449806D5B8FEC4FF57E07E8FE4AF7106C2A8097
310
0B8481601017D0A7000AE10207088A3E962F3AE4DE3B049F71D0720710820708BE5D8468021C03213B3040DF1D0C04778113049D046806C161BCC2610B411DF691A068F27804DAB9C0DA9FBE3041F021B9A7EE195081E0AC49390C0AC1CD0F5DA063173843F0301CD656104CC120984608A60CC1245DBB401582A7A9824E19
310
60B540683B4E001240FC2241C739C1FC3B2D7740122C1728F3015B088A1704931B04A778EF288033041B092079A873493A5DD0D03B030E10DC9D9A4F1B1204F74F078A0B6C20780A123B77813AE9DA43D0C905AC423AFD0800E38D05CC72324872AF30C049803810EC5B801C028D3F43EEE7A90284CCD06B083613C0692C30
310
877BE20F411F17B0654ED0E4CCC7C2C8CE5D609914BD70015F01084177085E47C8FDC501B51C78FBF4B88B0BE48AA01209AABA8F065D5C6015C034D870B8990B1C6A84AE86C35D274765229D5CCF0748A90F804A8FEF21D87F7A3C120312057071012905E26A433008B6720111793929DA3B04FF394AEE4C80CAA975CD50E7
310
3542A62FE64A7ACF0E57D35E32B13133B2F71AA1DA5401448D503DCCC380E04DD3D39A4A300130B2C3A10448C10480A811BA1300A2468810240429405408FA0B005123740F416C17200308C1C790FBF865C014C019821186C3D82E80911D7E29C05C480AEA02008991C0C3E11873824DD3E329A0004DD70CC5740143760180
310
1AA1DB5038C34FDC3243748118106C991E8F3623045123141882FE0238A7C709C11010646608393B0CEF0210354284E04B08E20AC0C4085D605E38997F43BA006B8410B6D42404EF049896123133E4B4A5262B45E9021142E1EE7793A30B4482202B458309C04AD18FBC6AEE0FCD089999A700114261C1162003105A804F6C
310
24F7C75CE04314FC2B63016708FA0B505F594F081282080260EC26770BC15180BCCD90A166879B0B106E2CF018724F66A06B866C7CF6735FDF448C0841E83941332DD1A0B57AC3443417582645815D40CA6673A602BD5E404C5923C4C408A60B2C02186A8D502AAFA1EA7B37B95B017C5FBB5BFDEB0EDAAF18D071A300E802
310
240AF01308C23C02890CA00014802E4017A00B9001148002D0054005281307689FD82E902800059805C06EF0027C030B990782429E8C000000000049454E44AE426082
  0
ENDSEC
  0
EOF
